EXSite.pl - Portal ze wszystkim Mamy tutaj wszystko

NIE MASZ JESZCZE KONTA? ZAREJESTRUJ SIĘ ZA DARMO!   
Przypomnij hasło X

Bitwa o Anglię / Battle of Britain (1969) PL.720p.BluRay.x264-Destiny / POLSKI LEKTOR

Dodał: CrashRed 19 Listopad 2011 18:05


Bitwa o Anglię / Battle of Britain (1969) PL.720p.BluRay.x264-Destiny / POLSKI LEKTOR

Bitwa o Anglię / Battle of Britain (1969) PL.720p.BluRay.x264-Destiny / POLSKI LEKTOR

Bitwa o Anglię / Battle of Britain (1969) PL.720p.BluRay.x264-Destiny / POLSKI LEKTOR
http://www.filmweb.pl/film/Bitwa+o+Angli%C4%99-1969-4202

czas trwania: 2 godz. 13 min.
gatunek: Dramat, Wojenny
premiera: 15 września 1969 (świat) 1969-09-15
reżyseria: Guy Hamilton
scenariusz: Wilfred Greatorex, James Kennaway

Dramat wojenny rozgrywający się podczas niemieckiej lotniczej inwazji na Wielką Brytanię w 1940 roku. Dzielni angielscy piloci z pomocą Polaków, Amerykanów i innych zaciekle odpierają ataki wroga.
Bitwa o Anglię / Battle of Britain (1969) PL.720p.BluRay.x264-Destiny / POLSKI LEKTOR
Bitwa o Anglię / Battle of Britain (1969) PL.720p.BluRay.x264-Destiny / POLSKI LEKTOR

Format : Matroska
File size : 6.03 GiB
Duration : 2h 12mn
Overall bit rate : 6 528 Kbps
Video
Format/Info : Advanced Video Codec
Format profile : High@L4.1
Duration : 2h 12mn
Bit rate : 6 333 Kbps
Width : 1 280 pixels
Height : 544 pixels
Display aspect ratio : 2.35:1
Frame rate : 23.976 fps
Stream size : 5.73 GiB (95%)
Title : Battle of Britain
Writing library : x264 core 60 r889M 2c59717
Language : English
Audio
Format : AC-3
Format/Info : Audio Coding 3
Duration : 2h 12mn
Bit rate mode : Constant
Bit rate : 192 Kbps
Channel(s) : 2 channels
Stream size : 182 MiB (3%)
Title : Destiny-Polski



Bitwa o Anglię / Battle of Britain (1969) PL.720p.BluRay.x264-Destiny / POLSKI LEKTOR
Uwaga! Linki nie zakodowane tylko dla zarejestrowanych użytkowników!

Nie masz konta? Zarejestruj się za darmo!
----------------
Links are not encoded only for registered users only! Plese login or register!



Użytkownik VIP

CrashRedVIP

#1 | Dodany: 19 Listopad 2011 18:06

ok
Użytkownik VIP

dyskoteka1987Trial Uploader

#2 | Dodany: 19 Listopad 2011 20:29

thx

Informacje

Jeżeli chcesz skomentować artykuł musisz być zarejestrowany na stronie.