EXSite.pl - Portal ze wszystkim Mamy tutaj wszystko

NIE MASZ JESZCZE KONTA? ZAREJESTRUJ SIĘ ZA DARMO!   
Przypomnij hasło X

Szakal / The Jackal (1997) PL.720p.BluRay.x264-Destiny / POLSKI LEKTOR +mHD

Dodał: CrashRed 11 Grudzień 2011 17:25


Szakal / The Jackal (1997) PL.720p.BluRay.x264-Destiny / POLSKI LEKTOR

Szakal / The Jackal (1997) PL.720p.BluRay.x264-Destiny / POLSKI LEKTOR +mHD

Szakal / The Jackal (1997) PL.720p.BluRay.x264-Destiny / POLSKI LEKTOR +mHD
http://www.filmweb.pl/film/Szakal-1997-178

czas trwania: 2 godz. 4 min.
gatunek: Sensacyjny
premiera: 30 stycznia 1998 (Polska) 1998-01-30 14 listopada 1997 (świat) 1997-11-14
reżyseria: Michael Caton-Jones
scenariusz: Chuck Pfarrer

Dramat sensacyjny nawiązujący do znanej powieści Frederica Forsytha. Zawodowy morderca otrzymuje zlecenie od organizacji przestępczych: ma zgładzić ameryka?ską osobistość polityczną. Szef FBI próbuje zapobiec zbrodni, współpracuje z rosyjskim wywiadem - i z terrorystą, który zostaje wypuszczony z więzienia i obiecuje pomoc.


Szakal / The Jackal (1997) PL.720p.BluRay.x264-Destiny / POLSKI LEKTOR +mHD
Szakal / The Jackal (1997) PL.720p.BluRay.x264-Destiny / POLSKI LEKTOR +mHD

Format : Matroska
File size : 3.26 GiB
Duration : 2h 4mn
Overall bit rate : 3 751 Kbps
Video
Format/Info : Advanced Video Codec
Format profile : High@L4.1
Duration : 2h 4mn
Bit rate : 3 525 Kbps
Width : 1 280 pixels
Height : 544 pixels
Display aspect ratio : 2.35:1
Frame rate : 23.976 fps
Stream size : 3.00 GiB (92%)
Writing library : x264 core 102 r1666 d058f37
Language : English
Audio
Format : AC-3
Duration : 2h 4mn
Bit rate mode : Constant
Bit rate : 224 Kbps
Channel(s) : 2 channels
Stream size : 199 MiB (6%)
Title : Destiny-Polski
Language : Polish



Szakal / The Jackal (1997) PL.720p.BluRay.x264-Destiny / POLSKI LEKTOR +mHD
Uwaga! Linki nie zakodowane tylko dla zarejestrowanych użytkowników!

Nie masz konta? Zarejestruj się za darmo!
----------------
Links are not encoded only for registered users only! Plese login or register!





Szakal / The Jackal (1997) PL.720p.BluRay.x264-Destiny / POLSKI LEKTOR

Format : Matroska
File size : 2.79 GiB
Duration : 2h 4mn
Overall bit rate : 3 210 Kbps
Video
Format/Info : Advanced Video Codec
Format profile : High@L4.1
Duration : 2h 4mn
Bit rate : 2 600 Kbps
Maximum bit rate : 15.0 Mbps
Width : 1 280 pixels
Height : 544 pixels
Display aspect ratio : 2.35:1
Frame rate : 23.976 fps6
Stream size : 2.20 GiB (79%)
Writing library : x264 core 115 r1995 c1e60b9
Language : English
Audio #1
Format : AC-3
Duration : 2h 4mn
Bit rate mode : Constant
Bit rate : 384 Kbps
Channel(s) : 6 channels
Stream size : 341 MiB (12%)
Audio #2
Mode extension : CM (complete main)
Codec ID : A_AC3
Duration : 2h 4mn
Bit rate : 224 Kbps
Channel(s) : 2 channels
Stream size : 199 MiB (7%)
Title : Destiny-Polski
Language : Polish


Uwaga! Linki nie zakodowane tylko dla zarejestrowanych użytkowników!

Nie masz konta? Zarejestruj się za darmo!
----------------
Links are not encoded only for registered users only! Plese login or register!



Użytkownik VIP

CrashRedVIP

#1 | Dodany: 19 Listopad 2011 18:55

ok
Użytkownik VIP

dyskoteka1987Trial Uploader

#2 | Dodany: 19 Listopad 2011 20:27

thx

Informacje

Jeżeli chcesz skomentować artykuł musisz być zarejestrowany na stronie.