EXSite.pl - Portal ze wszystkim Mamy tutaj wszystko

NIE MASZ JESZCZE KONTA? ZAREJESTRUJ SIĘ ZA DARMO!   
Przypomnij hasło X

Król Skorpion / The Scorpion King (2002) PL.BluRay.720p.x264.Destiny / POLSKI LEKTOR +mHD

Dodał: CrashRed 27 Listopad 2011 19:49


Król Skorpion / The Scorpion King (2002) PL.BluRay.720p.x264.Destiny / POLSKI LEKTOR +mHD

Król Skorpion / The Scorpion King (2002) PL.BluRay.720p.x264.Destiny / POLSKI LEKTOR  +mHD

Król Skorpion / The Scorpion King (2002) PL.BluRay.720p.x264.Destiny / POLSKI LEKTOR  +mHD
http://www.filmweb.pl/Krol.Skorpion

czas trwania: 1 godz. 32 min.
gatunek: Fantasy, Przygodowy
premiera: 26 kwietnia 2002 (Polska) 2002-04-26 15 kwietnia 2002 (świat) 2002-04-15
reżyseria: Chuck Russell
scenariusz: David Hayter, Stephen Sommers (więcej...)

Heroic fantasy w realiach starożytnego Egiptu. Umięśnieni mężczyźni, skąpo ubrane kobiety i masa efektów specjalnych. Zainspirowana opowieściami o legendarnym władcy Egiptu, historia opowiedziana w filmie "Król Skorpion" osadzona jest w pełnych brutalności czasach ciężkich doświadcze? plemion pustynnych jeszcze cztery wieki przed wzniesieniem Wielkiej Piramidy. To właśnie wtedy, jak widzimy początkowo na ekranie, czarnoksiężnik przepowiedział, że wkrótce na arenę starożytnego świata wkroczy
postać legendarnego króla, który wsławi się odwagą i męstwem. Bezwzględny i okrutny Memnon mniema, iż chodzi o niego i gotów jest zrobić wszystko, aby zostać królem. Siłą stara się podporządkować sobie plemiona pustynne, w swoich atakach napotykając na niewielki opór nielicznych, osłabionych codziennymi zmaganiami ludów. Mimo to niewielka grupa Akkadianów, niegdyś słynnego i silnego liczebnie szczepu sumeryjskiego, teraz niemalże na wymarciu, zostaje wynajęta z zamiarem pozbycia się czarnoksiężnika, który steruje zabójczą ręką Memnona. Z czasem okazuje się, że z grupy Akkadianów na skutek starć z wrogiem ostaje się zaledwie jedna osoba - Mathyus


Król Skorpion / The Scorpion King (2002) PL.BluRay.720p.x264.Destiny / POLSKI LEKTOR  +mHD
Król Skorpion / The Scorpion King (2002) PL.BluRay.720p.x264.Destiny / POLSKI LEKTOR  +mHD

Format : Matroska
File size : 4.62 GiB
Duration : 1h 31mn
Overall bit rate : 7 232 Kbps
Video
Format/Info : Advanced Video Codec
Format profile : High@L4.1
Duration : 1h 31mn
Bit rate : 6 205 Kbps
Width : 1 280 pixels
Height : 544 pixels
Display aspect ratio : 2.35:1
Frame rate : 23.976 fps
Stream size : 3.88 GiB (84%)
Writing library : x264 core 67 r1153M 7b6ce6a
Language : English
Audio #1
Format : AC-3
Duration : 1h 31mn
Bit rate mode : Constant
Bit rate : 640 Kbps
Channel(s) : 6 channels
Stream size : 419 MiB (9%)
Title : English AC3
Language : English
Audio #2
Format : AC-3
Duration : 1h 31mn
Bit rate mode : Constant
Bit rate : 384 Kbps
Channel(s) : 6 channels
Title : Destiny-Polski
Language : Polish



Król Skorpion / The Scorpion King (2002) PL.BluRay.720p.x264.Destiny / POLSKI LEKTOR  +mHD
Uwaga! Linki nie zakodowane tylko dla zarejestrowanych użytkowników!

Nie masz konta? Zarejestruj się za darmo!
----------------
Links are not encoded only for registered users only! Plese login or register!





Król Skorpion / The Scorpion King (2002) PL.m-720p.BluRay.x264-Destiny / POLSKI LEKTOR

Format : Matroska
File size : 2.10 GiB
Duration : 1h 31mn
Overall bit rate : 3 286 Kbps
Video
Format/Info : Advanced Video Codec
Format profile : High@L4.1
Duration : 1h 31mn
Bit rate : 2 900 Kbps
Width : 1 280 pixels
Height : 544 pixels
Display aspect ratio : 2.35:1
Frame rate : 23.976 fps
Stream size : 1.81 GiB (86%)
Writing library : x264 core 116 r2074 2641b9e
Language : English
Audio
Format : AC-3
Duration : 1h 31mn
Bit rate mode : Constant
Bit rate : 384 Kbps
Channel(s) : 6 channels
Stream size : 251 MiB (12%)
Title : Destiny-Polski


Uwaga! Linki nie zakodowane tylko dla zarejestrowanych użytkowników!

Nie masz konta? Zarejestruj się za darmo!
----------------
Links are not encoded only for registered users only! Plese login or register!



Użytkownik VIP

CrashRedVIP

#1 | Dodany: 19 Listopad 2011 19:22

ok
Użytkownik VIP

rockyvssnakeUżytkownik

#2 | Dodany: 25 Listopad 2011 13:41

The Scorpion King (2002) 720p BluRay x264 AC-3 Lektor PL

Format: Matroska, Overall bit rate: 7 231 Kbps, Total Size: 5.13 GB
Video: x264 core AVC, Bit rate: 6 205 Kbps, 1280*544 pixels, 23.976 fps,

Audio1: Polski Lektor, AC-3, Bit rate: 384 Kbps, 6 channels, 48.0 KHz, 16 bits
Audio2: English, AC-3, 640 Kbps, 6 channels, 48.0 KHz, 16 bits


można pobierać zamiennie z serwerów | Dane naprawcze 10 %
Uwaga! Linki nie zakodowane tylko dla zarejestrowanych użytkowników!

Nie masz konta? Zarejestruj się za darmo!
----------------
Links are not encoded only for registered users only! Plese login or register!

Informacje

Jeżeli chcesz skomentować artykuł musisz być zarejestrowany na stronie.