EXSite.pl - Portal ze wszystkim Mamy tutaj wszystko

NIE MASZ JESZCZE KONTA? ZAREJESTRUJ SIĘ ZA DARMO!   
Przypomnij hasło X

Memento (2000) PL.1080p.BluRay.x264-Crash / POLSKI LEKTOR +mHD

Dodał: CrashRed 4 Grudzień 2011 18:59


Memento (2000) PL.1080p.BluRay.x264-Crash / POLSKI LEKTOR +mHD

Memento (2000) PL.1080p.BluRay.x264-Crash / POLSKI LEKTOR +mHD

Memento (2000) PL.1080p.BluRay.x264-Crash / POLSKI LEKTOR +mHD
http://www.filmweb.pl/Memento

czas trwania: 1 godz. 53 min.
gatunek: Dramat, Kryminał, Thriller
premiera: 16 listopada 2001 (Polska) 2001-11-16 5 września 2000 (świat) 2000-09-05
reżyseria: Christopher Nolan
scenariusz: Christopher Nolan, Jonathan Nolan

Leonard poszukuje przestępcy, który zgwałcił i zamordował jego żonę. On sam w trakcie napadu doznał obraże?, w wyniku których cierpi na rzadki, ale podobno prawdziwy stan umysłu (pewnego rodzaju amnezja). Pamięta wszystko, co zdarzyło się do momentu morderstwa żony, ale nie jest w stanie zapamiętywać wydarze? sprzed 15 minut. Aby posuwać się naprzód w śledztwie, Leonard robi notatki na wykonywanych zdjęciach osób i przedmiotów, a co ważniejsze fakty tatuuje sobie na całym ciele.


Memento (2000) PL.1080p.BluRay.x264-Crash / POLSKI LEKTOR +mHD
Memento (2000) PL.1080p.BluRay.x264-Crash / POLSKI LEKTOR +mHD

Format : Matroska
File size : 9.81 GiB
Duration : 1h 53mn
Overall bit rate : 12.4 Mbps
Video
Format/Info : Advanced Video Codec
Format profile : High@L4.1
Duration : 1h 53mn
Bit rate : 12.0 Mbps
Width : 1 920 pixels
Height : 816 pixels
Display aspect ratio : 2.35:1
Frame rate : 23.976 fps
Bits/(Pixel*Frame) : 0.319
Stream size : 9.31 GiB (95%)
Title : Memento (2000)
Writing library : x264 core 114 r1913 5fd3dce
Language : English
Audio
Format : AC-3
Duration : 1h 53mn
Bit rate mode : Constant
Bit rate : 384 Kbps
Channel(s) : 6 channels
Stream size : 312 MiB (3%)
Title : Crash-Polski



Memento (2000) PL.1080p.BluRay.x264-Crash / POLSKI LEKTOR +mHD
Uwaga! Linki nie zakodowane tylko dla zarejestrowanych użytkowników!

Nie masz konta? Zarejestruj się za darmo!
----------------
Links are not encoded only for registered users only! Plese login or register!





Memento (2000) PL.BluRay.m1080p.x264.AC3-Crash / POLSKI LEKTOR

Format : Matroska
File size : 3.87 GiB
Duration : 1h 53mn
Overall bit rate : 4 886 Kbps
Format/Info : Advanced Video Codec
Format profile : High@L4.1
Duration : 1h 53mn
Bit rate mode : Variable
Bit rate : 4 500 Kbps
Maximum bit rate : 15.0 Mbps
Width : 1 920 pixels
Height : 816 pixels
Display aspect ratio : 2.35:1
Frame rate : 23.976 fps
Stream size : 3.49 GiB (90%)
Writing library : x264 core 114 r1924 08d04a4
Language : English
Audio
Format : AC-3
Duration : 1h 53mn
Bit rate mode : Constant
Bit rate : 384 Kbps
Channel(s) : 6 channels
Stream size : 312 MiB (8%)
Title : Crash-Polski


Uwaga! Linki nie zakodowane tylko dla zarejestrowanych użytkowników!

Nie masz konta? Zarejestruj się za darmo!
----------------
Links are not encoded only for registered users only! Plese login or register!



Użytkownik VIP

CrashRedVIP

#1 | Dodany: 19 Listopad 2011 19:44

ok
Użytkownik VIP

TunakUżytkownik

#2 | Dodany: 19 Listopad 2011 20:25

Będzie w 720p ?
Użytkownik VIP

CrashRedVIP

#3 | Dodany: 19 Listopad 2011 22:03

Tunak,
na ta chwile jeszcze m1080p
Użytkownik VIP

macieknnUżytkownik

#4 | Dodany: 1 Grudzień 2011 10:34

to ja tak CrashRed masz odemnie ogromny pluss jeszcze się nie zawiodłem na twoich upach jakość 1klasa pozdro

Informacje

Jeżeli chcesz skomentować artykuł musisz być zarejestrowany na stronie.