EXSite.pl - Portal ze wszystkim Mamy tutaj wszystko

NIE MASZ JESZCZE KONTA? ZAREJESTRUJ SIĘ ZA DARMO!   
Przypomnij hasło X

Nieśmiertelny / Highlander (1986) DC.PL.720p.BluRay.x264-Crash / POLSKI LEKTOR +mHD

Dodał: CrashRed 3 Grudzień 2011 20:02


Nieśmiertelny / Highlander (1986) DC.PL.720p.BluRay.x264-Crash / POLSKI LEKTOR

Nieśmiertelny / Highlander (1986) DC.PL.720p.BluRay.x264-Crash / POLSKI LEKTOR  +mHD

Nieśmiertelny / Highlander (1986) DC.PL.720p.BluRay.x264-Crash / POLSKI LEKTOR  +mHD
http://www.filmweb.pl/Niesmiertelny

czas trwania: 1 godz. 56 min.
gatunek: Fantasy
Wielka Brytania, USA
premiera: 31 grudnia 1986 (Polska) 1986-12-31 stycze? 1986 (świat) 1986-01
reżyseria: Russell Mulcahy
scenariusz: Larry Ferguson, Gregory Widen (więcej...)

Urodzony w górzystej Szkocji w 1518 roku, Connor Macleod jest nieśmiertelny. Kiedy podczas bitwy z wrogim klanem zostaje śmiertelnie ugodzony, ale nie umiera, przerażeni członkowie jego klanu skazują go na banicję. Błąkając się po górach Connor napotyka Ramireza, który również jest nieśmiertelny. Dowiaduje się od niego, że na świecie jest kilku takich jak oni toczących między sobą walkę o główną nagrodę, którą otrzyma ostatni z nieśmiertelnych. Jedyną możliwością wyeliminowania nieśmiertelnego ze świata jest odcięcie mu głowy mieczem.


Nieśmiertelny / Highlander (1986) DC.PL.720p.BluRay.x264-Crash / POLSKI LEKTOR  +mHD
Nieśmiertelny / Highlander (1986) DC.PL.720p.BluRay.x264-Crash / POLSKI LEKTOR  +mHD

Format : Matroska
File size : 6.93 GiB
Duration : 1h 56mn
Overall bit rate : 8 501 Kbps
Video
Format/Info : Advanced Video Codec
Format profile : High@L4.1
Duration : 1h 56mn
Bit rate : 6 541 Kbps
Width : 1 280 pixels
Height : 688 pixels
Display aspect ratio : 1.860
Frame rate : 24.000 fps
Stream size : 5.19 GiB (75%)
Writing library : x264 core 67 r1165M 6841c5e
Language : English
Audio #1
Format : DTS
Duration : 1h 56mn
Bit rate mode : Constant
Bit rate : 1 510 Kbps
Channel(s) : 6 channels
Stream size : 1.23 GiB (18%)
Language : English
Audio #2
Format : AC-3
Duration : 1h 56mn
Bit rate mode : Constant
Bit rate : 448 Kbps
Channel(s) : 6 channels
Stream size : 374 MiB (5%)
Title : Crash-Polski



Nieśmiertelny / Highlander (1986) DC.PL.720p.BluRay.x264-Crash / POLSKI LEKTOR  +mHD
Uwaga! Linki nie zakodowane tylko dla zarejestrowanych użytkowników!

Nie masz konta? Zarejestruj się za darmo!
----------------
Links are not encoded only for registered users only! Plese login or register!








Nieśmiertelny / Highlander (1986) DC.PL.720p.BluRay.x264-Crash / POLSKI LEKTOR

Format : Matroska
File size : 2.96 GiB
Duration : 1h 56mn
Overall bit rate : 3 635 Kbps
Video
Format/Info : Advanced Video Codec
Format profile : High@L3.1
Duration : 1h 56mn
Bit rate : 3 114 Kbps
Width : 1 280 pixels
Height : 688 pixels
Display aspect ratio : 1.850
Original display aspect ratio : 1.860
Frame rate : 24.000 fps
Stream size : 2.54 GiB (86%)
Writing library : x264 core 67 r1169M ab85c9b
Language : English
Audio
Format : AC-3
Duration : 1h 56mn
Bit rate mode : Constant
Bit rate : 448 Kbps
Channel(s) : 6 channels
Stream size : 374 MiB (12%)
Title : Crash-Polski

Uwaga! Linki nie zakodowane tylko dla zarejestrowanych użytkowników!

Nie masz konta? Zarejestruj się za darmo!
----------------
Links are not encoded only for registered users only! Plese login or register!




Użytkownik VIP

CrashRedVIP

#1 | Dodany: 19 Listopad 2011 20:07

ok
Użytkownik VIP

xxrasherxxUżytkownik

#2 | Dodany: 23 Czerwiec 2012 15:51

Nieśmiertelny / Highlander - Final Cut (1986) 720p Dual Audio [Lektor PL / EN] BluRay x.264



Dane techniczne:
Format : Matroska
File size : 6.93 GiB
Duration : 1h 56mn
Overall bit rate : 8 500 Kbps

Video
ID : 1
Format : AVC
Bit rate : 6 541 Kbps
Width : 1 280 pixels
Height : 688 pixels
Display aspect ratio : 1.860
Frame rate : 24.000 fps

Audio #1
ID : 2
Format : AC-3
Bit rate : 448 Kbps
Channel(s) : 6 channels
Language : Polish

Audio #2
ID : 3
Format : DTS
Bit rate : 1 510 Kbps
Channel(s) : 6 channels
Language : English


Opis uploadu:
Wielkość całości: 7,01 Gb
Rodzaj kompresji: rar
Zawartość Uploadu: .mkv
Wersja językowa: PL/Eng
Dane naprawcze: brak


Download // NO PASS
http://www.hellupload.com/4uki0o1529zv/Highlander_D.C._PL_720p.part01.rar.html
http://www.hellupload.com/t70ln2rqu1hb/Highlander_D.C._PL_720p.part02.rar.html
http://www.hellupload.com/s4iw05unr34e/Highlander_D.C._PL_720p.part03.rar.html
http://www.hellupload.com/ugqhn2kbheb1/Highlander_D.C._PL_720p.part04.rar.html
http://www.hellupload.com/ng6y1bzpvtmt/Highlander_D.C._PL_720p.part05.rar.html
http://www.hellupload.com/t3se77bjv1l9/Highlander_D.C._PL_720p.part06.rar.html
http://www.hellupload.com/r1xrpf1zooge/Highlander_D.C._PL_720p.part07.rar.html
http://www.hellupload.com/arp79p3h2sh8/Highlander_D.C._PL_720p.part08.rar.html
http://www.hellupload.com/rl7x2ev91mtc/Highlander_D.C._PL_720p.part09.rar.html

Informacje

Jeżeli chcesz skomentować artykuł musisz być zarejestrowany na stronie.