EXSite.pl - Portal ze wszystkim Mamy tutaj wszystko

NIE MASZ JESZCZE KONTA? ZAREJESTRUJ SIĘ ZA DARMO!   
Przypomnij hasło X

Hostel (2005) PL.DUAL.720p.BluRay.x264-HDW

Dodał: darkwizard 20 Listopad 2011 15:03



Hostel (2005) PL.DUAL.720p.BluRay.x264-HDW

Hostel (2005) HD-720p/Lektor PL





"Hostel" opowiada historię dwóch szkolnych przyjaciół - Paxtona i Josha, którzy wspólnie z nowo poznanym Olim przemierzają Europę w poszukiwaniu niezapomnianych wraże?. Koledzy zostają oczarowani opowieściami nieznajomego podróżnika o idealnym dla ameryka?skich poszukiwaczy przygód miejscu na Słowacji, pełnym wschodnioeuropejskich kobiet tak samo zdesperowanych, co pięknych. Przyjaciele szybko dają się skusić i po przyjeździe na miejsce z łatwością nawiązują bliższy kontakt z egzotycznymi
...


czas trwania: 1 godz. 34 min.
gatunek: Horror
premiera: 3 marca 2006 (Polska) 2006-03-03 17 września 2005 (świat) 2005-09-17
reżyseria: Eli Roth
scenariusz: Eli Roth


************************************************
Dane techniczne:
Plik : 4,63 GB
Video : 6021 Kbps, 23,976 fps, rozdz.1280x544
Audio1 : PL, 384 Kbps, 48000 Hz, 6 channels AC-3
Audio2 : ENG, 640 Kbps, 48000 Hz, 6 channels AC-3
10% danych naprawczych
************************************************



Party - 100 MB

MIRROR/Linki mozna pobierac na przemian

Uwaga! Linki nie zakodowane tylko dla zarejestrowanych użytkowników!

Nie masz konta? Zarejestruj się za darmo!
----------------
Links are not encoded only for registered users only! Plese login or register!





Program -JDownloader, ktorym sciagasz automatycznie pliki z powyzszych serwerow
Uwaga! Linki nie zakodowane tylko dla zarejestrowanych użytkowników!

Nie masz konta? Zarejestruj się za darmo!
----------------
Links are not encoded only for registered users only! Plese login or register!




Chcesz wiecej podobnych wstawek? Kliknij na mojego nicka i zobacz moje wszystkie newsy - kazdy znajdzie cos dla siebie

Użytkownik VIP

dr.schmeisserUżytkownik

#1 | Dodany: 20 Listopad 2011 21:31

Wrzuciłbys to na jakiś normalny serwis hostingowy.
Tego glumbuploads.com nie ma nawet w spisie JDownloadera, żeby mozna było aktywować free dowload i ściągać bez czekania 24 godz. po zaladowaniu 4GB.
Użytkownik VIP

CrashRedVIP

#2 | Dodany: 20 Listopad 2011 21:34



Hostel (2005) PL.DUAL.720p.BluRay.x264-BRY POLSKI LEKTOR

Format : Matroska
File size : 4.63 GiB
Duration : 1h 33mn
Overall bit rate : 7 048 Kbps
Movie name : Hostel.2005.DUAL.7200p.BluRay.x264-BRY.mkv
Video
Format : AVC
Format profile : High@L5.1
Duration : 1h 33mn
Bit rate : 6 021 Kbps
Width : 1 280 pixels
Height : 544 pixels
Display aspect ratio : 2.35:1
Frame rate : 23.976 fps
Stream size : 3.86 GiB (83%)
Title : Hostel
Writing library : x264 core 56 svn-680
Language : English
Audio #1
Format : AC-3
Duration : 1h 33mn
Bit rate : 384 Kbps
Channel(s) : 6 channels
Channel positions : Front: L C R, Side: L R, LFE
Stream size : 258 MiB (5%)
Title : AC3
Language : Polish
Audio #2
Format : AC-3
Duration : 1h 33mn
Bit rate : 640 Kbps
Channel(s) : 6 channels
Channel positions : Front: L C R, Side: L R, LFE
Stream size : 430 MiB (9%)
Title : AC3
Language : English
Text
Title : PL
Language : Polish


Uwaga! Linki nie zakodowane tylko dla zarejestrowanych użytkowników!

Nie masz konta? Zarejestruj się za darmo!
----------------
Links are not encoded only for registered users only! Plese login or register!

Informacje

Jeżeli chcesz skomentować artykuł musisz być zarejestrowany na stronie.