EXSite.pl - Portal ze wszystkim Mamy tutaj wszystko

NIE MASZ JESZCZE KONTA? ZAREJESTRUJ SIĘ ZA DARMO!   
Przypomnij hasło X

Hostel II / Hostel: Part II (2007) PL.DUAL.720p.BluRay.x264-HDW

Dodał: darkwizard 20 Listopad 2011 15:15



Hostel II / Hostel: Part II (2007) PL.DUAL.720p.BluRay.x264-HDW

Hostel II / Hostel: Part II (2007) HD-720p/Lektor PL





Kontynuacja słowackiego epizodu z pierwszej części "Hostelu". Trzy bohaterki studiujące we Włoszech, bogata dziewczyna (Lauren German) wraz ze swoją przyjaciółką (Bijou Phillips) spotykają po drodze koleżankę (Heather Matarazzo) i razem odwiedzają stare znane miejsca, aż trafiają do Hostelu w Czechach gdzie zaczyna się ich prawdziwa przygoda.


czas trwania: 1 godz. 33 min.
gatunek: Horror
premiera: 22 czerwca 2007 (Polska) 2007-06-22 7 czerwca 2007 (świat) 2007-06-07
reżyseria: Eli Roth
scenariusz: Eli Roth


************************************************
Dane techniczne:
Plik : 4,62 GB
Video : 5980 Kbps, 23,976 fps, rozdz.1280x544
Audio1 : PL, 384 Kbps, 48000 Hz, 6 channels AC-3
Audio2 : ENG, 640 Kbps, 48000 Hz, 6 channels AC-3
10% danych naprawczych
************************************************



Party - 100 MB

MIRROR/Linki mozna pobierac na przemian

Uwaga! Linki nie zakodowane tylko dla zarejestrowanych użytkowników!

Nie masz konta? Zarejestruj się za darmo!
----------------
Links are not encoded only for registered users only! Plese login or register!





Program -JDownloader, ktorym sciagasz automatycznie pliki z powyzszych serwerow
Uwaga! Linki nie zakodowane tylko dla zarejestrowanych użytkowników!

Nie masz konta? Zarejestruj się za darmo!
----------------
Links are not encoded only for registered users only! Plese login or register!




Chcesz wiecej podobnych wstawek? Kliknij na mojego nicka i zobacz moje wszystkie newsy - kazdy znajdzie cos dla siebie

Użytkownik VIP

balonik2433Użytkownik

#1 | Dodany: 20 Listopad 2011 18:59

Uruchomiłem jdownloader,zacząłem pobierać i przy każdym parcie napis że wtyczka przestarzała i nie mam pojęcia co zrobić,proszę o pomoc.
Użytkownik VIP

dr.schmeisserUżytkownik

#2 | Dodany: 20 Listopad 2011 21:30

Wrzuciłbys to na jakiś normalny serwis hostingowy.
Tego glumbuploads.com nie ma nawet w spisie JDownloadera, żeby mozna było aktywować free dowload i ściągać bez czekania 24 godz. po zaladowaniu 4GB.
Użytkownik VIP

CrashRedVIP

#3 | Dodany: 20 Listopad 2011 21:35


Hostel, część II / Hostel: Part II (2007) PL.DUAL.720p.BluRay.x264-BRY POLSKI LEKTOR

Format : Matroska
File size : 4.62 GiB
Duration : 1h 34mn
Overall bit rate : 6 981 Kbps
Movie name : Hostel.2007.DUAL.720p.BluRay.x264-BRY.mkv
Video
ID : 1
Format : AVC
Format/Info : Advanced Video Codec
Format profile : High@L5.1
Duration : 1h 34mn
Bit rate : 5 980 Kbps
Width : 1 280 pixels
Height : 544 pixels
Display aspect ratio : 2.35:1
Frame rate : 23.976 fps
Stream size : 3.85 GiB (83%)
Title : Hostel part II
Writing library : x264 core 56 svn-677
Language : English
Audio #1
Format : AC-3
Duration : 1h 34mn
Bit rate mode : Constant
Bit rate : 384 Kbps
Channel(s) : 6 channels
Stream size : 260 MiB (6%)
Title : AC3
Language : Polish
Audio #2
Format : AC-3
Duration : 1h 34mn
Bit rate mode : Constant
Bit rate : 640 Kbps
Channel(s) : 6 channels
Stream size : 433 MiB (9%)
Title : AC3
Language : English
Text
Title : PL
Language : Polish



Uwaga! Linki nie zakodowane tylko dla zarejestrowanych użytkowników!

Nie masz konta? Zarejestruj się za darmo!
----------------
Links are not encoded only for registered users only! Plese login or register!

Informacje

Jeżeli chcesz skomentować artykuł musisz być zarejestrowany na stronie.