EXSite.pl - Portal ze wszystkim Mamy tutaj wszystko

NIE MASZ JESZCZE KONTA? ZAREJESTRUJ SIĘ ZA DARMO!   
Przypomnij hasło X

Titanic (1997) PL.720p.HDTV.x264.AC3-5.1-PL-HDW / POLSKI LEKTOR

Dodał: CrashRed 20 Listopad 2011 16:14


Titanic (1997) PL.720p.HDTV.x264.AC3-5.1-PL-HDW / POLSKI LEKTOR

Titanic (1997) PL.720p.HDTV.x264.AC3-5.1-PL-HDW / POLSKI LEKTOR

Titanic (1997) PL.720p.HDTV.x264.AC3-5.1-PL-HDW / POLSKI LEKTOR
http://www.filmweb.pl/Titanic

czas trwania: 3 godz. 14 min.
gatunek: Melodramat, Katastroficzny
premiera: 13 kwietnia 2012 (Polska) 2012-04-13 1 listopada 1997 (świat) 1997-11-01
reżyseria: James Cameron
scenariusz: James Cameron

W słoneczny, kwietniowy dzie? w 1912 roku, na angielskim wybrzeżu arystokratyczna rodzina wraz z 17-letnią Rose (Kate Winslet) wchodzi na pokład Titanica, udając się w podróż do Stanów Zjednoczonych. Pół godziny później grający w pokera w tanim, portowym barze 23-letni Jack Dawson (Leonardo DiCaprio) wygrywa szczęśliwym trafem bilet III klasy na rejs Titanicem. W ostatniej chwili przed wypłynięciem statku wbiega na jego pokład. Tak zaczyna się wielka historia miłosna, która miała odmienić życie pięknej, bogatej, lecz nieszczęśliwej Rose oraz biednego, nie mającego nic prócz talentu malarskiego Jacka.



Format : Matroska
File size : 7.44 GiB
Duration : 3h 14mn
Overall bit rate : 5 471 Kbps
Movie name : Titanic 1997 720p HDTV DTS-ES x264-ESiR
Video
Format/Info : Advanced Video Codec
Format profile : High@L5.1
Duration : 3h 14mn
Bit rate : 5 020 Kbps
Width : 1 280 pixels
Height : 556 pixels
Display aspect ratio : 2.35:1
Frame rate : 23.976 fps
Stream size : 6.69 GiB (90%)
Writing library : x264 core 60 r877M c74a8e2
Language : English
Audio
Format : AC-3
Duration : 3h 14mn
Bit rate mode : Constant
Bit rate : 448 Kbps
Channel(s) : 6 channels
Stream size : 624 MiB (8%)
Language : Polish



Titanic (1997) PL.720p.HDTV.x264.AC3-5.1-PL-HDW / POLSKI LEKTOR
Uwaga! Linki nie zakodowane tylko dla zarejestrowanych użytkowników!

Nie masz konta? Zarejestruj się za darmo!
----------------
Links are not encoded only for registered users only! Plese login or register!



Użytkownik VIP

CrashRedVIP

#1 | Dodany: 20 Listopad 2011 16:15

ok
Użytkownik VIP

kamil445Użytkownik

#2 | Dodany: 4 Grudzień 2011 13:49

ahh te czasy tytanika :D
Obejrzę sobie ponownie :D
Użytkownik VIP

qgrzegorzGość

#3 | Dodany: 29 Luty 2012 17:09

Titanic (1997) PL.720p.BluRay.AC3.x264-HD.Movie

Dane Techniczne:
General           : Titanic.1997.720p.PL.x264.HDMovie.mkv
Format            : Matroska at 5.471 Kb/s
Length            : 7,44 GB for 3h 14 min. 48s 647ms

Video #0          : AVC at 5.020 Kb/s
Aspect            : 1280 x 556 (2.302) at 23.976 fps

Audio #0          : AC-3 at 448 Kb/s
Infos             : 6 kanałów, 48,0 KHz
Language          : pl

INFO Lektor: lektor profesjonalny
Źródło obrazu: *Blu-ray/DVD*


Opis uploadu:
wielkość całości:8.26 GB
rodzaj kompresji: RAR
zawartość uploadu: plik .mkv
wersja językowa: PL
Dane naprawcze:10%


Download:
Uwaga! Linki nie zakodowane tylko dla zarejestrowanych użytkowników!

Nie masz konta? Zarejestruj się za darmo!
----------------
Links are not encoded only for registered users only! Plese login or register!


HASŁO:

filmik

Martwe linki.Pisz na PW zrobie reupload.

Informacje

Jeżeli chcesz skomentować artykuł musisz być zarejestrowany na stronie.