EXSite.pl - Portal ze wszystkim Mamy tutaj wszystko

NIE MASZ JESZCZE KONTA? ZAREJESTRUJ SIĘ ZA DARMO!   
Przypomnij hasło X

Siły specjalne / Disarmed (2010) PL.BluRay.720p.x264.Crash / POLSKI LEKTOR

Dodał: CrashRed 20 Listopad 2011 16:33


Siły specjalne / Disarmed (2010) PL.BluRay.720p.x264.Crash / POLSKI LEKTOR

Siły specjalne / Disarmed (2010) PL.BluRay.720p.x264.Crash / POLSKI LEKTOR

Siły specjalne / Disarmed (2010) PL.BluRay.720p.x264.Crash / POLSKI LEKTOR
http://www.filmweb.pl/film/Si%C5%82y+specjalne-2010-502949

czas trwania: 1 godz. 38 min.
gatunek: Sensacyjny, Akcja
premiera: 1 listopada 2010 (świat) 2010-11-01
reżyseria: Tom Shell
scenariusz: Jennifer Lee Loy, Stephanie Lemelin

Oddział, którym dowodzi Kyle Fierson (A.J. Draven), ma za zadanie uwolnić ameryka?skiego naukowca, który został uprowadzony przez filipi?skich terrorystów na polecenie Lilian Carlyle (Finola Hughes), szefowej firmy z branży przemysłu zbrojeniowego. Badacz wynalazł nową technologię nuklearną. Jego odkrycie warte jest miliardy dolarów. Podwładni kapitana Fiersona muszą ponadto odebrać złoczy?com pierwowzór mikroczipu, dzięki któremu można zbudować minibombę. Tymczasem opłaceni przez Lilian ludzie zastawiają pułapkę na żołnierzy sił specjalnych, dowodzonych przez pułkownika Caine'a (Steven Bauer).

Format : Matroska
File size : 4.10 GiB
Duration : 1h 38mn
Overall bit rate : 5 962 KbpsVideo
Format/Info : Advanced Video Codec
Format profile : High@L4.1
Duration : 1h 38mn
Bit rate : 5 768 Kbps
Width : 1 280 pixels
Height : 720 pixels
Display aspect ratio : 16:9
Frame rate : 23.976 fps
Stream size : 3.89 GiB (95%)
Writing library : x264 core 115 r2008 4c552d8
Language : English
Audio
Format : AC-3
Duration : 1h 38mn
Bit rate mode : Constant
Bit rate : 192 Kbps
Channel(s) : 2 channels
Stream size : 135 MiB (3%)
Title : cRASH-pOLSKI
Language : Polish



Siły specjalne / Disarmed (2010) PL.BluRay.720p.x264.Crash / POLSKI LEKTOR
Uwaga! Linki nie zakodowane tylko dla zarejestrowanych użytkowników!

Nie masz konta? Zarejestruj się za darmo!
----------------
Links are not encoded only for registered users only! Plese login or register!



Użytkownik VIP

CrashRedVIP

#1 | Dodany: 20 Listopad 2011 16:34

ok
Użytkownik VIP

dyskoteka1987Trial Uploader

#2 | Dodany: 24 Listopad 2011 08:18

thx

Informacje

Jeżeli chcesz skomentować artykuł musisz być zarejestrowany na stronie.