EXSite.pl - Portal ze wszystkim Mamy tutaj wszystko

NIE MASZ JESZCZE KONTA? ZAREJESTRUJ SIĘ ZA DARMO!   
Przypomnij hasło X

1911 / Xinhai Revolution (2011) m720p.Bluray.x264-Jewelraz

Dodał: maaaniek2 20 Listopad 2011 16:53


1911 / Xinhai Revolution (2011) m720p.Bluray.x264-Jewelraz

1911 / Xinhai Revolution (2011) m720p.Bluray.x264-Jewelraz

1911 / Xinhai Revolution (2011) m720p.Bluray.x264-Jewelraz
O FILMIE:

Zgodnie z tytułem, akcja obrazu rozgrywa się w roku 1911. Huang Xin (Chan) i Sun Jat-sen (Winston Chao) są przywódcami rewolucji, której celem jest poprawa doli ludu. Łączą zatem siły, by obalić skorumpowane rządy dynastii Qing. Do pierwszych wystąpie? zbrojnych doszło w kwietniu w Kantonie. Jednak z powodu braku amunicji atak na budynek gubernatora nie powiódł się. W zrywie zginęło wielu rewolucjonistów. W październiku zbuntowała się królewska armia stacjonująca w prowincji Hubei, której przewodził Zhang Zhen Wu (Jaycee Chan). Cesarzowa wybrała Yuana Shikaia do zwalczenia rewolucji. Tymczasem Huang Xin zorganizował siły obronne. Wkrótce do rewolucjonistów przyłączyło się 14 prowincji. Sun Jat-sen został wybrany tymczasowym prezydentem republiki, ko?cząc ponad 2 tysiące lat monarchii w Chinach
1911 / Xinhai Revolution (2011) m720p.Bluray.x264-Jewelraz



1911 / Xinhai Revolution (2011) m720p.Bluray.x264-Jewelraz
DANE TECHNICZNE:



1911 / Xinhai Revolution (2011) m720p.Bluray.x264-Jewelraz
Archiwum RAR w partach po ~ 1gb

Archiwum testowane przed uploadem

Dodane dane naprawcze

Linki zamienne


1911 / Xinhai Revolution (2011) m720p.Bluray.x264-Jewelraz
DOWNLOAD:

Uwaga! Linki nie zakodowane tylko dla zarejestrowanych użytkowników!

Nie masz konta? Zarejestruj się za darmo!
----------------
Links are not encoded only for registered users only! Plese login or register!


1911 / Xinhai Revolution (2011) m720p.Bluray.x264-Jewelraz
HASŁO:

bez hasła



Martwe linki? Potrzebny reupload? Wejdź tutaj i napisz wiadomość

Zobacz koniecznie moje newsy na EXSite.pl z filmami w HD m720p!

Użytkownik VIP

pablov7Użytkownik

#1 | Dodany: 20 Listopad 2011 23:15

Szkoda że nie ma napisów bo wszędzie szukam i kicha;/

Alę dzięki za wstawkę ok
Użytkownik VIP

pablov7Użytkownik

#2 | Dodany: 5 Grudzień 2011 16:49

Nadal nie ma napisów??? <szok>
Użytkownik VIP

PrzemquUżytkownik

#3 | Dodany: 11 Styczeń 2012 20:52

Zapraszam na film z napisami PL do mnie:

Info tech:

Dostępne napisy: PL & ENG

Format : Matroska
Format version : Version 2
File size : 1.60 GiB
Duration : 2h 1mn
Overall bit rate mode : Variable
Overall bit rate : 1 895 Kbps
Writing application : Lavf52.94.0
Writing library : Lavf52.94.0

Video
ID : 1
Format : AVC
Format/Info : Advanced Video Codec
Format profile : Main@L4.0
Format settings, CABAC : Yes
Format settings, ReFrames : 1 frame
Format settings, GOP : M=1, N=15
Codec ID : V_MPEG4/ISO/AVC
Duration : 2h 1mn
Bit rate mode : Variable
Bit rate : 1 666 Kbps
Maximum bit rate : 5 100 Kbps
Width : 1 280 pixels
Height : 720 pixels
Display aspect ratio : 16:9
Frame rate : 24.000 fps
Color space : YUV
Chroma subsampling : 4:2:0
Bit depth : 8 bits
Scan type : Progressive
Bits/(Pixel*Frame) : 0.075
Stream size : 1.41 GiB (88%)
Language : English
Default : Yes
Forced : No

Audio
ID : 2
Format : AC-3
Format/Info : Audio Coding 3
Mode extension : CM (complete main)
Codec ID : A_AC3
Duration : 2h 1mn
Bit rate mode : Constant
Bit rate : 192 Kbps
Channel(s) : 2 channels
Channel positions : Front: L R
Sampling rate : 48.0 KHz
Bit depth : 16 bits
Compression mode : Lossy
Stream size : 166 MiB (10%)
Language : English
Default : Yes
Forced : No


Uwaga! Linki nie zakodowane tylko dla zarejestrowanych użytkowników!

Nie masz konta? Zarejestruj się za darmo!
----------------
Links are not encoded only for registered users only! Plese login or register!

Informacje

Jeżeli chcesz skomentować artykuł musisz być zarejestrowany na stronie.