EXSite.pl - Portal ze wszystkim Mamy tutaj wszystko

NIE MASZ JESZCZE KONTA? ZAREJESTRUJ SIĘ ZA DARMO!   
Przypomnij hasło X

W sieci kłamstw / Body of Lies (2008) PL.1080p.BluRay.x264-Crash / POLSKI LEKTOR +mHD

Dodał: CrashRed 10 Grudzień 2011 18:33


W sieci kłamstw / Body of Lies (2008) PL.1080p.BluRay.x264-Crash / POLSKI LEKTOR +mHD

W sieci kłamstw / Body of Lies (2008) PL.1080p.BluRay.x264-Crash / POLSKI LEKTOR   +mHD

W sieci kłamstw / Body of Lies (2008) PL.1080p.BluRay.x264-Crash / POLSKI LEKTOR   +mHD
http://www.filmweb.pl/film/W+sieci+k%C5%82amstw-2008-298590

czas trwania: 2 godz. 8 min.
gatunek: Dramat, Thriller, Akcja
premiera: 21 listopada 2008 (Polska) 2008-11-21 5 października 2008 (świat) 2008-10-05
reżyseria: Ridley Scott
scenariusz: William Monahan

Crowe wciela się w postać Eda Hoffmana, skłonnego do intryg szefa CIA, który wraz z agentem Rogerem Ferrisem (DiCaprio) zastawia pułapkę na jednego z najniebezpieczniejszych liderów Al-Kaidy, rozpuszczając fałszywą plotkę, że zamachowiec współpracuje z Amerykanami.


W sieci kłamstw / Body of Lies (2008) PL.1080p.BluRay.x264-Crash / POLSKI LEKTOR   +mHD
W sieci kłamstw / Body of Lies (2008) PL.1080p.BluRay.x264-Crash / POLSKI LEKTOR   +mHD

ormat : Matroska
File size : 8.35 GiB
Duration : 2h 8mn
Overall bit rate : 9 315 Kbps
Format/Info : Advanced Video Codec
Format profile : High@L4.1
Duration : 2h 8mn
Bit rate : 8 224 Kbps
Width : 1 920 pixels
Height : 800 pixels
Display aspect ratio : 2.40:1
Frame rate : 23.976 fps
Stream size : 7.21 GiB (86%)
Writing library : x264 core 66 r1093M 1df50b9
Language : English
Audio #1
Format : AC-3
Duration : 2h 8mn
Bit rate mode : Constant
Bit rate : 640 Kbps
Channel(s) : 6 channels
Stream size : 587 MiB (7%)
Audio #2
Format : AC-3
Duration : 2h 8mn
Bit rate mode : Constant
Bit rate : 448 Kbps
Channel(s) : 6 channels
Stream size : 411 MiB (5%)
Title : Crash-Polski



W sieci kłamstw / Body of Lies (2008) PL.1080p.BluRay.x264-Crash / POLSKI LEKTOR   +mHD
Uwaga! Linki nie zakodowane tylko dla zarejestrowanych użytkowników!

Nie masz konta? Zarejestruj się za darmo!
----------------
Links are not encoded only for registered users only! Plese login or register!







W sieci kłamstw / Body of Lies (2008) PL.m1080p.x264.AC3-Crash / POLSKI LEKTOR


Format : Matroska
File size : 4.78 GiB
Duration : 2h 8mn
Overall bit rate : 5 329 Kbps
Video
Format/Info : Advanced Video Codec
Format profile : High@L4.0
Duration : 2h 8mn
Bit rate : 4 430 Kbps
Width : 1 920 pixels
Height : 800 pixels
Display aspect ratio : 2.40:1
Frame rate : 23.976 fps
Bits/(Pixel*Frame) : 0.120
Stream size : 3.88 GiB (81%)
Writing library : x264 core 114 r1924 08d04a4
Language : English
Audio #1
Format/Info : Audio Coding 3
Duration : 2h 8mn
Bit rate mode : Constant
Bit rate : 448 Kbps
Channel(s) : 2 channels
Stream size : 411 MiB (8%)
Audio #2
Format : AC-3
Duration : 2h 8mn
Bit rate mode : Constant
Bit rate : 448 Kbps
Channel(s) : 6 channels
Stream size : 411 MiB (8%)
Title : Crash-Polski



Uwaga! Linki nie zakodowane tylko dla zarejestrowanych użytkowników!

Nie masz konta? Zarejestruj się za darmo!
----------------
Links are not encoded only for registered users only! Plese login or register!



Użytkownik VIP

CrashRedVIP

#1 | Dodany: 20 Listopad 2011 16:57

ok
Użytkownik VIP

fush83Użytkownik

#2 | Dodany: 20 Listopad 2011 18:34

ma moze ktos ten film na DVD ??
Użytkownik VIP

Marek1411Użytkownik

#3 | Dodany: 17 Kwiecień 2012 17:09

W Sieci Kłamstw / Body of Lies (2008) 720p.BluRay.x264.DTS Dual Audio [Lektor PL/ENG]


Dane techniczne
General
Format : Matroska
File size : 6.97 GB
PlayTime : 2:08:18
Bit rate : 5683 Kbps

Video
Codec : V_MPEG4/ISO/AVC
Codec profile : High@L4.1
Nominal bit rate : 5683 Kbps
Width : 1 280 pixels
Height : 534 pixels
Frame rate : 23.976 fps

Audio 1
Codec : DTS
Bit rate : 1509 Kbps
Channel(s) : 6 channels
Sampling rate : 48.0 KHz
Language : English

Audio 2  
Codec : AC-3
Bit rate : 448 kbps
Channel(s) : 6 channels
Sampling rate : 48.0 KHz
Language : Polski


Opis Uploadu
Wielkość całości: 7,13GB
Rodzaj kompresji: .rar
Zawartość uploadu: .mkv
Wersja językowa: EN/PL
Dane Naprawcze: 3%


HELLSHARE

http://download.hellshare.pl/body-of-lies-2008-720p-bluray-dts-x264-esir-part1-rar/6769758/
http://download.hellshare.pl/body-of-lies-2008-720p-bluray-dts-x264-esir-part2-rar/6769795/
http://download.hellshare.pl/body-of-lies-2008-720p-bluray-dts-x264-esir-part3-rar/6769872/
http://download.hellshare.pl/body-of-lies-2008-720p-bluray-dts-x264-esir-part4-rar/6769946/
http://download.hellshare.pl/body-of-lies-2008-720p-bluray-dts-x264-esir-part5-rar/6770006/
http://download.hellshare.pl/body-of-lies-2008-720p-bluray-dts-x264-esir-part6-rar/6770049/
http://download.hellshare.pl/body-of-lies-2008-720p-bluray-dts-x264-esir-part7-rar/6770211/
http://download.hellshare.pl/body-of-lies-2008-720p-bluray-dts-x264-esir-part8-rar/6770231/


RAPIDGATOR
http://rapidgator.net/file/4924290/Body.of.Lies.2008.720p.BluRay.DTS.x264-ESiR.part1.rar.html
http://rapidgator.net/file/4924289/Body.of.Lies.2008.720p.BluRay.DTS.x264-ESiR.part2.rar.html
http://rapidgator.net/file/4925771/Body.of.Lies.2008.720p.BluRay.DTS.x264-ESiR.part3.rar.html
http://rapidgator.net/file/4925817/Body.of.Lies.2008.720p.BluRay.DTS.x264-ESiR.part4.rar.html
http://rapidgator.net/file/4926540/Body.of.Lies.2008.720p.BluRay.DTS.x264-ESiR.part5.rar.html
http://rapidgator.net/file/4926995/Body.of.Lies.2008.720p.BluRay.DTS.x264-ESiR.part6.rar.html
http://rapidgator.net/file/4927558/Body.of.Lies.2008.720p.BluRay.DTS.x264-ESiR.part7.rar.html
http://rapidgator.net/file/4927915/Body.of.Lies.2008.720p.BluRay.DTS.x264-ESiR.part8.rar.html


TURBOBIT
http://turbobit.net/7b2iqz3ma2zw/Body.of.Lies.2008.720p.BluRay.DTS.x264-ESiR.part1.rar.html
http://turbobit.net/6ej60zalkomi/Body.of.Lies.2008.720p.BluRay.DTS.x264-ESiR.part2.rar.html
http://turbobit.net/wknvu4f5w0z1/Body.of.Lies.2008.720p.BluRay.DTS.x264-ESiR.part3.rar.html
http://turbobit.net/06pejkl40x5p/Body.of.Lies.2008.720p.BluRay.DTS.x264-ESiR.part4.rar.html
http://turbobit.net/e0edqp4m7pm8/Body.of.Lies.2008.720p.BluRay.DTS.x264-ESiR.part5.rar.html
http://turbobit.net/u3gtzc5t7g1s/Body.of.Lies.2008.720p.BluRay.DTS.x264-ESiR.part6.rar.html
http://turbobit.net/qfeba4oxxx9l/Body.of.Lies.2008.720p.BluRay.DTS.x264-ESiR.part7.rar.html
http://turbobit.net/dtcmrhcmlyyb/Body.of.Lies.2008.720p.BluRay.DTS.x264-ESiR.part8.rar.html

Informacje

Jeżeli chcesz skomentować artykuł musisz być zarejestrowany na stronie.