EXSite.pl - Portal ze wszystkim Mamy tutaj wszystko

NIE MASZ JESZCZE KONTA? ZAREJESTRUJ SIĘ ZA DARMO!   
Przypomnij hasło X

P.S. Kocham cię / P.S. I Love You (2007) PL.720p.BluRay.x264-Crash / POLSKI LEKTOR +mHD

Dodał: CrashRed 3 Grudzień 2011 18:34


P.S. Kocham cię / P.S. I Love You (2007) PL.720p.BluRay.x264-Crash / POLSKI LEKTOR +mHD

P.S. Kocham cię / P.S. I Love You (2007) PL.720p.BluRay.x264-Crash / POLSKI LEKTOR +mHD

P.S. Kocham cię / P.S. I Love You (2007) PL.720p.BluRay.x264-Crash / POLSKI LEKTOR +mHD
http://www.filmweb.pl/Ps.Kocham.Cie

czas trwania: 2 godz. 6 min.
gatunek: Melodramat
premiera: 14 lutego 2008 (Polska) 2008-02-14 20 grudnia 2007 (świat) 2007-12-20
reżyseria: Richard LaGravenese
scenariusz: Steven Rogers, Richard LaGravenese

Holly i Gerry nie musieli czekać całego życia, by znaleźć swoje bratnie dusze. Byli razem od dziecka, doka?czali swoje zdania i śmiali się nawet, gdy się kłócili. Nikt nie potrafił sobie wyobrazić ich osobno. Dopóki nie stało się coś nieoczekiwanego. śmierć Gerry'ego niszczy Holly. Lecz w dniu jej trzydziestych urodzin, Gerry do niej wraca. Zostawił jej kilka listów, które powoli wprowadzają Holly w jej nowe życie - bez niego. Każdy liścik ko?czy się podpisem "P.S. Kocham Cię". W miarę
otwierania kolejnych listów Holly jest jednocześnie szczęśliwa i zaintrygowana. Mężczyzna, który zna ją lepiej niż ktokolwiek inny, zaczyna uczyć ją, że życie toczy się dalej. Z pomocą przyjaciół oraz hałaśliwej i kochającej rodziny, Holly znów zaczyna śmiać się, płakać, śpiewać, ta?czyć i staje się silniejsza niż kiedykolwiek. Zdaje sobie sprawę z tego, że życie jest po to, by żyć, ale zawsze lepiej mieć anioła, który cię strzeże



Format : Matroska
File size : 4.77 GiB
Duration : 2h 6mn
Overall bit rate : 5 415 Kbps
Video
Format/Info : Advanced Video Codec
Format profile : High@L4.1
Duration : 2h 6mn
Bit rate : 4 324 Kbps
Width : 1 280 pixels
Height : 720 pixels
Display aspect ratio : 16:9
Frame rate : 23.976 fps
Stream size : 3.71 GiB (78%)
Writing library : x264 core 59 r819M 0414d78
Language : English
Audio #1
Format : AC-3
Duration : 2h 6mn
Bit rate mode : Constant
Bit rate : 640 Kbps
Channel(s) : 6 channels
Stream size : 577 MiB (12%)
Language : English
Audio #2
Format : AC-3
Duration : 2h 6mn
Bit rate mode : Constant
Bit rate : 448 Kbps
Channel(s) : 6 channelsy
Stream size : 404 MiB (8%)
Title : Crash-Polski



P.S. Kocham cię / P.S. I Love You (2007) PL.720p.BluRay.x264-Crash / POLSKI LEKTOR +mHD
Uwaga! Linki nie zakodowane tylko dla zarejestrowanych użytkowników!

Nie masz konta? Zarejestruj się za darmo!
----------------
Links are not encoded only for registered users only! Plese login or register!






P.S. Kocham cię / P.S. I Love You (2007) PL.m720p.bluray.x264.ac3.Crash / POLSKI LEKTOR

Format : Matroska
File size : 2.94 GiB
Duration : 2h 6mn
Overall bit rate : 3 340 Kbps
Movie name : P.S.I.Love.You.m720p.bluray.x264.ac3.Soltu
Format/Info : Advanced Video Codec
Format profile : High@L4.1
Duration : 2h 6mn
Bit rate : 2 505 Kbps
Width : 1 280 pixels
Height : 720 pixels
Display aspect ratio : 16:9
Frame rate : 23.976 fps
Stream size : 2.15 GiB (73%)
Title : Video
Writing library : x264 core 112 r1867 22bfd31
Language : English
Audio #1
Format : AC-3
Duration : 2h 6mn
Bit rate mode : Constant
Bit rate : 384 Kbps
Channel(s) : 6 channels
Stream size : 346 MiB (11%)
Title : Audio
Language : English
Audio #2
Format : AC-3
Duration : 2h 6mn
Bit rate mode : Constant
Bit rate : 448 Kbps
Channel(s) : 6 channels
Stream size : 404 MiB (13%)
Title : Crash-Polski
Language : Polish


Uwaga! Linki nie zakodowane tylko dla zarejestrowanych użytkowników!

Nie masz konta? Zarejestruj się za darmo!
----------------
Links are not encoded only for registered users only! Plese login or register!



Użytkownik VIP

CrashRedVIP

#1 | Dodany: 20 Listopad 2011 18:20

ok
Użytkownik VIP

diabollo1972Użytkownik

#2 | Dodany: 21 Listopad 2011 16:23

taniec

Informacje

Jeżeli chcesz skomentować artykuł musisz być zarejestrowany na stronie.