EXSite.pl - Portal ze wszystkim Mamy tutaj wszystko

NIE MASZ JESZCZE KONTA? ZAREJESTRUJ SIĘ ZA DARMO!   
Przypomnij hasło X

ślubne wojny / Bride Wars (2009) PL.BluRay.720p.x264.-Destiny / POLSKI LEKTOR +mHD

Dodał: CrashRed 27 Listopad 2011 19:19


ślubne wojny / Bride Wars (2009) PL.BluRay.720p.x264.-Destiny / POLSKI LEKTOR +mHD

ślubne wojny / Bride Wars (2009) PL.BluRay.720p.x264.-Destiny / POLSKI LEKTOR +mHD

ślubne wojny / Bride Wars (2009) PL.BluRay.720p.x264.-Destiny / POLSKI LEKTOR +mHD
http://www.filmweb.pl/film/%C5%9Alubne+wojny-2009-216448

czas trwania: 1 godz. 29 min.
gatunek: Komedia
premiera: 6 lutego 2009 (Polska) 2009-02-06 5 stycznia 2009 (świat) 2009-01-05
reżyseria: Gary Winick
scenariusz: Greg DePaul, June Diane Raphael (więcej...)

Liv (Kate Hudson) i Emma (Anne Hathaway) są najlepszymi przyjaciółkami. Od dziecka wyobrażały sobie swoje śluby i obie marzyły o weselu w nowojorskim hotelu Plaza. Właśnie sko?czyły dwadzieścia sześć lat i wychodzą za mąż. Spełni się ich największe marzenie i będą żyły długo, i szczęśliwie. Albo i nie… Popełniono błąd i daty obu ślubów wyznaczono na ten sam dzie?. To będzie prawdziwa próba przyjaźni… Liv jest prawniczką przyzwyczajoną, że dostaje to, czego chce. Ma świetną pracę i idealnego
faceta – ślub też musi być perfekcyjny. Emma to nauczycielka, dla której szczęście bliskich jest ważniejsze od własnego. Do czasu… Przygotowania do ślubu wyzwolą w niej bestię. Najlepsze przyjaciółki, które do tej pory robiły dla siebie wszystko, postawią ceremonie na pierwszym miejscu. Zacznie się prawdziwa ślubna wojna


ślubne wojny / Bride Wars (2009) PL.BluRay.720p.x264.-Destiny / POLSKI LEKTOR +mHD
ślubne wojny / Bride Wars (2009) PL.BluRay.720p.x264.-Destiny / POLSKI LEKTOR +mHD

Format : Matroska
File size : 3.68 GiB
Duration : 1h 28mn
Overall bit rate : 5 917 Kbps
Video
Format/Info : Advanced Video Codec
Format profile : High@L4.1
Duration : 1h 28mn
Bit rate : 5 530 Kbps
Width : 1 280 pixels
Height : 688 pixels
Display aspect ratio : 1.860
Frame rate : 23.976 fps
Stream size : 3.36 GiB (92%)
Writing library : x264 core 67 r1148M 400740b
Language : English
Audio
Format : AC-3
Duration : 1h 28mn
Bit rate mode : Constant
Bit rate : 384 Kbps
Channel(s) : 6 channels
Stream size : 244 MiB (6%)
Title : Destiny-Polski



ślubne wojny / Bride Wars (2009) PL.BluRay.720p.x264.-Destiny / POLSKI LEKTOR +mHD
Uwaga! Linki nie zakodowane tylko dla zarejestrowanych użytkowników!

Nie masz konta? Zarejestruj się za darmo!
----------------
Links are not encoded only for registered users only! Plese login or register!




ślubne wojny / Bride Wars (2009) PL.BluRay.m720p.x264.-Destiny / POLSKI LEKTOR

Format : Matroska
File size : 1.38 GiB
Duration : 1h 28mn
Overall bit rate : 2 217 Kbps
Video
Format : AVC
Format profile : High@L4.1
Duration : 1h 28mn
Bit rate : 1 830 Kbps
Width : 1 280 pixels
Height : 688 pixels
Display aspect ratio : 1.860
Frame rate : 23.976 fps
Stream size : 1.11 GiB (81%)
Writing library : x264 core 67 r1139M 1024283
Audio
Format : AC-3
Duration : 1h 28mn
Bit rate mode : Constant
Bit rate : 384 Kbps
Channel(s) : 6 channels
Stream size : 244 MiB (17%)
Title : Destiny-Polski

Uwaga! Linki nie zakodowane tylko dla zarejestrowanych użytkowników!

Nie masz konta? Zarejestruj się za darmo!
----------------
Links are not encoded only for registered users only! Plese login or register!



Użytkownik VIP

CrashRedVIP

#1 | Dodany: 20 Listopad 2011 18:49

ok
Użytkownik VIP

ueeUżytkownik

#2 | Dodany: 27 Listopad 2011 19:29

Super!
Aż sobie oglądnę przed snem na bogato.
Wersja nr: 1 File size : 3.68 GiB jak najbardziej mi odpowiada.

thx thx

Od wczoraj Filesonic mnie wk*rwia!
Mają co jakiś czas 100-200KB/S na kontach premium.
Wstrzymam się chwilkę.
Z resztą o co ja w ogóle walczę. Mam multikonto bez limitów.
Pobieranie z 75 hostingów.
Lecę z Fileserve.

Wszystko OK.
Zabieram się za oglądanie.

Ale potrzaskany film.
Jednak na ko?cu jego morał robi wrażenie.
Nie spieraj się z idiotą, ktoś patrzący z boku mógłby was pomylić.

Informacje

Jeżeli chcesz skomentować artykuł musisz być zarejestrowany na stronie.