EXSite.pl - Portal ze wszystkim Mamy tutaj wszystko

NIE MASZ JESZCZE KONTA? ZAREJESTRUJ SIĘ ZA DARMO!   
Przypomnij hasło X

Drakula / Dracula (1992) m720p.AC3.x264-maaaniek

Dodał: maaaniek2 23 Listopad 2011 16:22


Drakula / Dracula (1992) m720p.AC3.x264-maaaniek

audio: polski lektor Drakula / Dracula (1992) m720p.AC3.x264-maaaniek
Drakula / Dracula (1992) m720p.AC3.x264-maaaniek

Drakula / Dracula (1992) m720p.AC3.x264-maaaniek
O FILMIE:

czas trwania: 2 godz. 8 min.
gatunek: Horror
premiera: 31 grudnia 1992 (Polska) 13 listopada 1992 (świat)
reżyseria: Francis Ford Coppola
scenariusz: James V. Hart

Film zaczyna się w XV wieku, kiedy to rumu?ski książę Vlad (Oldman) wyrusza na wojnę, aby bronić chrześcijan przed najazdem Turków. W swoim zamku zostawia ukochaną Elizabettę (Ryder). Vlad wychodzi zwycięsko z wojny, zanim jednak zdążył wrócić do siebie, podstępni wrogowie wysyłają do jego ukochanej wiadomość, że książę nie żyje. Zrozpaczona Elizabetta nie mogąc pogodzić się z jego śmiercią, skacze do rzeki. Kiedy Vlad przybywa do domu, dowiaduje się, że kapłani nie mają zamiaru pochować księżniczki, gdyż odebrała sobie życie. Wściekły książę niszczy kaplicę, wyrzeka się Boga i obiecuje dokonać zemsty przy użyciu złych sił. Przenosimy się do XIX wieku. Młody prawnik, Jonathan Harker (Reeves) dostaje zlecenie - ma zastąpić kolegę po fachu, Renfielda (Waits), który po powrocie z Rumunii został zamknięty w mrocznym zakładzie dla obłąkanych. Harker żegna się ze swoją ukochaną, Miną, która na ten czas zamieszka u swojej przyjaciółki....

Drakula / Dracula (1992) m720p.AC3.x264-maaaniek



Drakula / Dracula (1992) m720p.AC3.x264-maaaniek
http://www.filmweb.pl/Drakula

Drakula / Dracula (1992) m720p.AC3.x264-maaaniek
DANE TECHNICZNE:



Drakula / Dracula (1992) m720p.AC3.x264-maaaniek
Archiwum RAR w partach po ~ 1gb

Archiwum testowane przed uploadem

Dodane dane naprawcze

Linki zamienne


Drakula / Dracula (1992) m720p.AC3.x264-maaaniek
DOWNLOAD:

Uwaga! Linki nie zakodowane tylko dla zarejestrowanych użytkowników!

Nie masz konta? Zarejestruj się za darmo!
----------------
Links are not encoded only for registered users only! Plese login or register!


Drakula / Dracula (1992) m720p.AC3.x264-maaaniek
HASŁO:

bez hasła



Martwe linki? Potrzebny reupload? Wejdź tutaj i napisz wiadomość

Zobacz koniecznie moje newsy na EXSite.pl z filmami w HD m720p!

Użytkownik VIP

CrashRedVIP

#1 | Dodany: 26 Listopad 2011 19:12

Drakula / Dracula (1992) PL.720p.BluRay.DTS.x264-Crash / POLSKI LEKTOR
Format : Matroska
File size : 7.02 GiB
Duration : 2h 7mn
Overall bit rate : 8 215 Kbps
Video
Format : AVC
Format/Info : Advanced Video Codec
Format profile : High@L5.1
Duration : 2h 7mn
Bit rate : 5 231 Kbps
Width : 1 280 pixels
Height : 688 pixels
Display aspect ratio : 1.860
Frame rate : 23.976 fps
Stream size : 5.07 GiB (71%)
Writing library : x264 core 56 svn-680
Language : English
Audio #1
Format : DTS
Duration : 2h 7mn
Bit rate mode : Constant
Bit rate : 1 510 Kbps
Channel(s) : 6 channels
Stream size : 1.34 GiB (19%)
Language : English
Audio #2
Format : AC-3
Duration : 2h 7mn
Bit rate mode : Constant
Bit rate : 480 Kbps
Channel(s) : 6 channels
Stream size : 583 MiB (8%)
Title : Crash-Polski


Uwaga! Linki nie zakodowane tylko dla zarejestrowanych użytkowników!

Nie masz konta? Zarejestruj się za darmo!
----------------
Links are not encoded only for registered users only! Plese login or register!

Informacje

Jeżeli chcesz skomentować artykuł musisz być zarejestrowany na stronie.