EXSite.pl - Portal ze wszystkim Mamy tutaj wszystko

NIE MASZ JESZCZE KONTA? ZAREJESTRUJ SIĘ ZA DARMO!   
Przypomnij hasło X

Bitwa o Anglię / Battle of Britain (1969) PL.HDTV.720p.x264-DRP

Dodał: darekzp 24 Listopad 2011 22:49



Bitwa o Anglię / Battle of Britain (1969) PL.HDTV.720p.x264-DRP

Bitwa o Anglię /  Battle of Britain (1969) PL.HDTV.720p.x264-DRP


Dramat wojenny rozgrywający się podczas niemieckiej lotniczej inwazji na Wielką Brytanię w 1940 roku. Dzielni angielscy piloci z pomocą Polaków, Amerykanów i innych zaciekle odpierają ataki wroga.

czas trwania: 2 godz. 13 min.
gatunek: Dramat, Wojenny
premiera: 15 września 1969 (świat)
reżyseria: Guy Hamilton
scenariusz: Wilfred Greatorex, James Kennaway
obsada: Laurence Olivier, Curd J?rgens, Robert Shaw, Kenneth More, Edward Fox, Susannah York, Hein Reiss, Dietrich Frauboes, Christopher Plummer, Michael Caine



Format : Matroska at 3.502 Kb/s
Length : 3,09 GB for 2h 6 min. 25s 704ms
Video #0 : AVC at 3.356 Kb/s
Aspect : 1280 x 720 (1.778) at 25.000 fps
Audio #0 : MPEG Audio at 143 Kb/s
Infos : 2 kanały, 48,0 KHz



Uwaga! Linki nie zakodowane tylko dla zarejestrowanych użytkowników!

Nie masz konta? Zarejestruj się za darmo!
----------------
Links are not encoded only for registered users only! Plese login or register!






wielkość całości:  3,09 GB
zawartość uploadu: plik .mkv
wersja językowa: PL
Dane naprawcze: 8%
Hasło : BRAK






Użytkownik VIP

CrashRedVIP

#1 | Dodany: 24 Listopad 2011 23:03

[center][size=2]Bitwa o Anglię / Battle of Britain (1969) PL.720p.BluRay.x264-Destiny / POLSKI LEKTOR[/size]


Format : Matroska
File size : 6.03 GiB
Duration : 2h 12mn
Overall bit rate : 6 528 Kbps
Video
Format/Info : Advanced Video Codec
Format profile : High@L4.1
Duration : 2h 12mn
Bit rate : 6 333 Kbps
Width : 1 280 pixels
Height : 544 pixels
Display aspect ratio : 2.35:1
Frame rate : 23.976 fps
Stream size : 5.73 GiB (95%)
Title : Battle of Britain
Writing library : x264 core 60 r889M 2c59717
Language : English
Audio
Format : AC-3
Format/Info : Audio Coding 3
Duration : 2h 12mn
Bit rate mode : Constant
Bit rate : 192 Kbps
Channel(s) : 2 channels
Stream size : 182 MiB (3%)
Title : Destiny-Polski


Uwaga! Linki nie zakodowane tylko dla zarejestrowanych użytkowników!

Nie masz konta? Zarejestruj się za darmo!
----------------
Links are not encoded only for registered users only! Plese login or register!

Informacje

Jeżeli chcesz skomentować artykuł musisz być zarejestrowany na stronie.