EXSite.pl - Portal ze wszystkim Mamy tutaj wszystko

NIE MASZ JESZCZE KONTA? ZAREJESTRUJ SIĘ ZA DARMO!   
Przypomnij hasło X

Beowulf (2007) DirCut.m720p.AC3.DualAudio.x264-maaaniek

Dodał: maaaniek2 25 Listopad 2011 10:26


Beowulf (2007) DirCut.m720p.AC3.DualAudio.x264-maaaniek

audio: polski Beowulf (2007) DirCut.m720p.AC3.DualAudio.x264-maaaniek / angielski Beowulf (2007) DirCut.m720p.AC3.DualAudio.x264-maaaniek
napisy: polski Beowulf (2007) DirCut.m720p.AC3.DualAudio.x264-maaaniek / angielski Beowulf (2007) DirCut.m720p.AC3.DualAudio.x264-maaaniek

Beowulf (2007) DirCut.m720p.AC3.DualAudio.x264-maaaniek

Beowulf (2007) DirCut.m720p.AC3.DualAudio.x264-maaaniek
O FILMIE:

czas trwania: 1 godz. 53 min.
gatunek: Animacja, Fantasy, Przygodowy
premiera: 23 listopada 2007 (Polska) 5 listopada 2007 (świat)
reżyseria: Robert Zemeckis
scenariusz: Roger Avary, Neil Gaiman


W czasach wielkich bohaterów żyje najmężniejszy z nich – Beowulf. Pokonawszy potężnego potwora o imieniu Grendel, Beowulf ściąga na siebie niegasnący gniew jego uwodzicielskiej, a zarazem bezwzględnej matki, która zrobi wszystko, co w jej mocy, aby pomścić syna. Epicka w swoim rozmachu walka, do jakiej doszło, wspominana była później przez wieki, a imię Beowulf zapisało się na zawsze w ludzkiej pamięci. Nagrodzony Oscarem reżyser Robert Zemeckis opowiada ten najstarszy epos w historii języka
.

Beowulf (2007) DirCut.m720p.AC3.DualAudio.x264-maaaniek


Beowulf (2007) DirCut.m720p.AC3.DualAudio.x264-maaaniek

http://www.filmweb.pl/Beowulf

Beowulf (2007) DirCut.m720p.AC3.DualAudio.x264-maaaniek
DANE TECHNICZNE:



Beowulf (2007) DirCut.m720p.AC3.DualAudio.x264-maaaniek
Archiwum RAR w partach po ~ 1gb

Archiwum testowane przed uploadem

Dodane dane naprawcze

Linki zamienne


Beowulf (2007) DirCut.m720p.AC3.DualAudio.x264-maaaniek
DOWNLOAD:

Uwaga! Linki nie zakodowane tylko dla zarejestrowanych użytkowników!

Nie masz konta? Zarejestruj się za darmo!
----------------
Links are not encoded only for registered users only! Plese login or register!


Beowulf (2007) DirCut.m720p.AC3.DualAudio.x264-maaaniek
HASŁO:

bez hasła



Martwe linki? Potrzebny reupload? Wejdź tutaj i napisz wiadomość

Zobacz koniecznie moje newsy na EXSite.pl z filmami w HD m720p!

Użytkownik VIP

CrashRedVIP

#1 | Dodany: 3 Grudzień 2011 17:47

[size=2]Beowulf (2007) DirCut.PL.720p.HDDVD.x264-Crash / POLSKI LEKTOR[/size]



Format : Matroska
File size : 3.67 GiB
Duration : 1h 54mn
Overall bit rate : 4 584 Kbps
Video
ID : 1
Format : AVC
Format/Info : Advanced Video Codec
Format profile : High@L5.1
Duration : 1h 54mn
Bit rate : 3 940 Kbps
Width : 1 280 pixels
Height : 544 pixels
Display aspect ratio : 2.35:1
Frame rate : 23.976 fps
Stream size : 3.09 GiB (84%)
Title : Beowulf
Writing library : x264 core 58 svn-736M
Language : English
Audio
ID : 2
Format : AC-3
Duration : 1h 54mn
Bit rate mode : Constant
Bit rate : 640 Kbps
Channel(s) : 6 channels
Stream size : 525 MiB (14%)
Title : Crash-Polski


Uwaga! Linki nie zakodowane tylko dla zarejestrowanych użytkowników!

Nie masz konta? Zarejestruj się za darmo!
----------------
Links are not encoded only for registered users only! Plese login or register!


Informacje

Jeżeli chcesz skomentować artykuł musisz być zarejestrowany na stronie.