EXSite.pl - Portal ze wszystkim Mamy tutaj wszystko

NIE MASZ JESZCZE KONTA? ZAREJESTRUJ SIĘ ZA DARMO!   
Przypomnij hasło X

Tekken Blood Vengeance (2011) BluRay.720p.DTS.2Audio.x264-JOMA

Dodał: niedzwiedzx 25 Listopad 2011 15:06


Tekken Blood Vengeance (2011) BluRay.720p.DTS.2Audio.x264-JOMA


Tekken Blood Vengeance (2011) BluRay.720p.DTS.2Audio.x264-JOMA


The events of Tekken 5 and Tekken 6, begins with Anna Williams setting up a decoy for her sister, Nina Williams, who is currently working with the new head of the Mishima Zaibatsu, Jin Kazama. Anna, on the other hand, works for Jin\’s father, Kazuya Mishima and its rival organization, G Corporation. Both are seeking information about a student named Shin Kamiya, and Anna dispatches as a Chinese student Ling Xiaoyu to act as a spy, while Jin sends humanoid robot Alisa Bosconovitch for a similar purpose.

INFO:


Tekken Blood Vengeance (2011) BluRay.720p.DTS.2Audio.x264-JOMA

Bez Hasła / No Pass

Tekken Blood Vengeance (2011) BluRay.720p.DTS.2Audio.x264-JOMA

Tekken Blood Vengeance (2011) BluRay.720p.DTS.2Audio.x264-JOMA

Uwaga! Linki nie zakodowane tylko dla zarejestrowanych użytkowników!

Nie masz konta? Zarejestruj się za darmo!
----------------
Links are not encoded only for registered users only! Plese login or register!

Tekken Blood Vengeance (2011) BluRay.720p.DTS.2Audio.x264-JOMA

Tekken Blood Vengeance (2011) BluRay.720p.DTS.2Audio.x264-JOMA

Uwaga! Linki nie zakodowane tylko dla zarejestrowanych użytkowników!

Nie masz konta? Zarejestruj się za darmo!
----------------
Links are not encoded only for registered users only! Plese login or register!

Tekken Blood Vengeance (2011) BluRay.720p.DTS.2Audio.x264-JOMA

Tekken Blood Vengeance (2011) BluRay.720p.DTS.2Audio.x264-JOMA

Uwaga! Linki nie zakodowane tylko dla zarejestrowanych użytkowników!

Nie masz konta? Zarejestruj się za darmo!
----------------
Links are not encoded only for registered users only! Plese login or register!

Tekken Blood Vengeance (2011) BluRay.720p.DTS.2Audio.x264-JOMA

Tekken Blood Vengeance (2011) BluRay.720p.DTS.2Audio.x264-JOMA

Uwaga! Linki nie zakodowane tylko dla zarejestrowanych użytkowników!

Nie masz konta? Zarejestruj się za darmo!
----------------
Links are not encoded only for registered users only! Plese login or register!

+

Tekken Blood Vengeance (2011) BluRay.720p.DTS.2Audio.x264-JOMA

Uwaga! Linki nie zakodowane tylko dla zarejestrowanych użytkowników!

Nie masz konta? Zarejestruj się za darmo!
----------------
Links are not encoded only for registered users only! Plese login or register!

+

Tekken Blood Vengeance (2011) BluRay.720p.DTS.2Audio.x264-JOMA

Uwaga! Linki nie zakodowane tylko dla zarejestrowanych użytkowników!

Nie masz konta? Zarejestruj się za darmo!
----------------
Links are not encoded only for registered users only! Plese login or register!


Użytkownik VIP

niedzwiedzxVIP

#1 | Dodany: 25 Listopad 2011 15:06

ok
Jeśli chcesz rozśmieszy? Boga, opowiedz mu o twoich planach na przysz?oś?.
Użytkownik VIP

sokol19934Użytkownik

#2 | Dodany: 26 Listopad 2011 03:27

co to jest film czy co i animacyjny??Oo
Użytkownik VIP

gepardmakUżytkownik

#3 | Dodany: 26 Listopad 2011 07:17

Napisy by się przydały. Ma może ktoś. Będę wdzięczny.
Użytkownik VIP

Arielko12Użytkownik

#4 | Dodany: 28 Listopad 2011 08:20

Ma ktoś napisy??
Użytkownik VIP

Download KillerUploader

#5 | Dodany: 30 Listopad 2011 19:51

Tekken: Blood Vengeance (2011) BDRip.x264.AC3-CrEwSaDe

Info ENG: imdb.com/title/tt2005363
Info PL: filmweb.pl/film/TEKKEN+Blood+Vengeance-2011-618069
Category: Movies / BDRip
Release Date: 25/11/2011
Video Format: x264
Size: 697 MB
Language: English
Audio Format: AC3
Subtitles: English
Archive: .rar
Part(s): 455MB + 249MB
Recovery data: 1%
Including: .mkv + .srt


General
Format: Matroska
File size: 698 MiB
Duration: 1h 32mn
Overall bit rate: 1 058 Kbps
Language: English
Subtitles: Yes, English

Video
Bit rate: 929 Kbps
Width: 720 pixels
Height: 400 pixels
Display aspect ratio: 16:9
Frame rate: 23.976 fps
Stream size: 600 MiB (86%)

Audio
Format: AC-3
Bit rate mode: Constant
Bit rate: 128 Kbps
Channel(s): 6 channels
Channel positions: Front: L C R, Side: L R, LFE
Sampling rate: 48.0 KHz
Stream size: 84.4 MiB (12%)
Language: English


Linki / Download
Uwaga! Linki nie zakodowane tylko dla zarejestrowanych użytkowników!

Nie masz konta? Zarejestruj się za darmo!
----------------
Links are not encoded only for registered users only! Plese login or register!

Lub / Or
Uwaga! Linki nie zakodowane tylko dla zarejestrowanych użytkowników!

Nie masz konta? Zarejestruj się za darmo!
----------------
Links are not encoded only for registered users only! Plese login or register!

Lub / Or
Uwaga! Linki nie zakodowane tylko dla zarejestrowanych użytkowników!

Nie masz konta? Zarejestruj się za darmo!
----------------
Links are not encoded only for registered users only! Plese login or register!
Spragniony anime, mangi i info z Japonii? Klikaj:
Projekt K7 M&A


Moje dotychczasowe publikacje na EXSite
http://exsite.pl/user/Download+Killer/news

Informacje

Jeżeli chcesz skomentować artykuł musisz być zarejestrowany na stronie.