EXSite.pl - Portal ze wszystkim Mamy tutaj wszystko

NIE MASZ JESZCZE KONTA? ZAREJESTRUJ SIĘ ZA DARMO!   
Przypomnij hasło X

Przylądek strachu / Cape Fear (1991) PL.720p.BluRay.x264-HDW Lektor PL

Dodał: Freedom35 26 Listopad 2011 11:14


Przylądek strachu / Cape Fear (1991)
PL.720p.BluRay.x264-HDW Lektor PL


Przylądek strachu / Cape Fear (1991) PL.720p.BluRay.x264-HDW Lektor PL

Przylądek strachu / Cape Fear (1991) PL.720p.BluRay.x264-HDW Lektor PL

- OPIS -

Niebezpieczny psychopata Max Cady (Robert De Niro) wychodzi na wolność po czternastu latach spędzonych w więzieniu. Ma jeden cel: chce zemścić się na swym adwokacie, Samie Bowdenie (Nick Nolte) i zaczyna terroryzować jego rodzinę. Gdy Sam uświadamia sobie, że nie jest w stanie zapewnić bezpiecze?stwa swojej pięknej żonie Leigh (Jessica Lange) i kilkunastoletniej córce Danielle (Juliette Lewis), wyzywa Maxa na pojedynek na śmierć i życie, którego tłem będzie budzący grozę Przylądek Strachu.
- iNFO - TECH -

Size.............: 6,80 GB
Runtime..........: 2h 8min
Video............: 6 580 Kbps Matroska
Resolution.......: 1280 x 544 (16:9)
Frame Rate.......: 23.976 fps
Audio 1..........: 754 Kbps 6 channels DTS Angielski
Audio 2..........: 224 Kbps 2 channels AC3 Polski
Subtitles........: Angielskie, Greckie


- Można pobierać na przemian | Bez hasła -
- All links are interchangeable | No password -

Uwaga! Linki nie zakodowane tylko dla zarejestrowanych użytkowników!

Nie masz konta? Zarejestruj się za darmo!
----------------
Links are not encoded only for registered users only! Plese login or register!


Przylądek strachu / Cape Fear (1991) PL.720p.BluRay.x264-HDW Lektor PL
Przylądek strachu / Cape Fear (1991) PL.720p.BluRay.x264-HDW Lektor PL Przylądek strachu / Cape Fear (1991) PL.720p.BluRay.x264-HDW Lektor PL Przylądek strachu / Cape Fear (1991) PL.720p.BluRay.x264-HDW Lektor PL Przylądek strachu / Cape Fear (1991) PL.720p.BluRay.x264-HDW Lektor PL
Przylądek strachu / Cape Fear (1991) PL.720p.BluRay.x264-HDW Lektor PL Przylądek strachu / Cape Fear (1991) PL.720p.BluRay.x264-HDW Lektor PL Przylądek strachu / Cape Fear (1991) PL.720p.BluRay.x264-HDW Lektor PL Przylądek strachu / Cape Fear (1991) PL.720p.BluRay.x264-HDW Lektor PL
Przylądek strachu / Cape Fear (1991) PL.720p.BluRay.x264-HDW Lektor PLPrzylądek strachu / Cape Fear (1991) PL.720p.BluRay.x264-HDW Lektor PL Przylądek strachu / Cape Fear (1991) PL.720p.BluRay.x264-HDW Lektor PL Przylądek strachu / Cape Fear (1991) PL.720p.BluRay.x264-HDW Lektor PL
Przylądek strachu / Cape Fear (1991) PL.720p.BluRay.x264-HDW Lektor PL Przylądek strachu / Cape Fear (1991) PL.720p.BluRay.x264-HDW Lektor PL


Użytkownik VIP

dyskoteka1987Trial Uploader

#1 | Dodany: 26 Listopad 2011 11:42

thx
Użytkownik VIP

CrashRedVIP

#2 | Dodany: 11 Grudzień 2011 19:30

Format : Matroska
File size : 4.72 GiB
Duration : 2h 7mn
Overall bit rate : 5 289 Kbps
Video
Format/Info : Advanced Video Codec
Format profile : High@L4.1
Duration : 2h 7mn
Bit rate : 4 838 Kbps
Width : 1 280 pixels
Height : 544 pixels
Display aspect ratio : 2.35:1
Frame rate : 23.976 fpsA
Stream size : 4.23 GiB (90%)
Title : DESTINY
Writing library : x264 core 102 r1666 d058f37
Language : English
Audio
Format : DTS
Duration : 2h 7mn
Bit rate mode : Constant
Bit rate : 448 Kbps
Channel(s) : 2 channels
Stream size : 409 MiB (8%)
Title : dESTINY-pOLSKI



Przylądek strachu / Cape Fear (1991) PL.BluRay.720p.DTS.x264-Destiny / POLSKI LEKTOR
Uwaga! Linki nie zakodowane tylko dla zarejestrowanych użytkowników!

Nie masz konta? Zarejestruj się za darmo!
----------------
Links are not encoded only for registered users only! Plese login or register!

Informacje

Jeżeli chcesz skomentować artykuł musisz być zarejestrowany na stronie.