EXSite.pl - Portal ze wszystkim Mamy tutaj wszystko

NIE MASZ JESZCZE KONTA? ZAREJESTRUJ SIĘ ZA DARMO!   
Przypomnij hasło X

Asterix i Obelix 1-3 / Ast?rix et Ob?lix 1-3 (1999-2008) PLDUB.720p.BluRay.x264-Destiny / POLSKI DUBBING

Dodał: CrashRed 10 Grudzień 2011 17:57


Asterix i Obelix kontra Cezar / Ast?rix et Ob?lix contre C?sar (1999) PLDUB.720p.BluRay.x264-Destiny / POLSKI DUBBING

Asterix i Obelix 1-3 / Ast?rix et Ob?lix 1-3 (1999-2008) PLDUB.720p.BluRay.x264-Destiny / POLSKI DUBBING

Asterix i Obelix 1-3 / Ast?rix et Ob?lix 1-3 (1999-2008) PLDUB.720p.BluRay.x264-Destiny / POLSKI DUBBING
http://www.filmweb.pl/film/Asterix+i+Obelix+kontra+Cezar-1999-636

czas trwania: 1 godz. 49 min.
gatunek: Familijny, Komedia, Przygodowy
Francja
premiera: 20 sierpnia 1999 (Polska) 1999-08-20 3 lutego 1999 (świat) 1999-02-03
reżyseria: Claude Zidi
scenariusz: Claude Zidi

Ekranizacja słynnego francuskiego komiksu o mieszka?cach pewnej wioski w Galii, uparcie walczących z Rzymianami. Akcja toczy się w I wieku przed naszą erą, Galia (współczesna Francja) okupowana jest przez Rzymian. Na północy kraju istnieje jednak niewielka wioska, której mieszka?cy zwycięsko opierają się okupantowi.


Asterix i Obelix 1-3 / Ast?rix et Ob?lix 1-3 (1999-2008) PLDUB.720p.BluRay.x264-Destiny / POLSKI DUBBING
Asterix i Obelix 1-3 / Ast?rix et Ob?lix 1-3 (1999-2008) PLDUB.720p.BluRay.x264-Destiny / POLSKI DUBBING

Format : Matroska
File size : 2.19 GiB
Duration : 1h 50mn
Overall bit rate : 2 848 Kbps
Format/Info : Advanced Video Codec
Format profile : High@L4.1
Duration : 1h 50mn
Bit rate : 2 400 Kbps
Width : 1 280 pixels
Height : 548 pixels
Display aspect ratio : 2.35:1
Frame rate : 23.976 fps
Stream size : 1.80 GiB (82%)
Title : m720p.BDRip.x264-m4c14k
Writing library : x264 core 116 r2074 2641b9e
Audio
Format : AC-3
Duration : 1h 50mn
Bit rate mode : Constant
Bit rate : 448 Kbps
Channel(s) : 6 channels
Stream size : 353 MiB (16%)
Title : Destiny-Polski



Asterix i Obelix 1-3 / Ast?rix et Ob?lix 1-3 (1999-2008) PLDUB.720p.BluRay.x264-Destiny / POLSKI DUBBING
Uwaga! Linki nie zakodowane tylko dla zarejestrowanych użytkowników!

Nie masz konta? Zarejestruj się za darmo!
----------------
Links are not encoded only for registered users only! Plese login or register!







Asterix i Obelix: Misja Kleopatra / Ast?rix & Ob?lix: Mission Cl?op?tre (2002) PLDUB.BluRay.720p.x264.Destiny / POLSKI DUBBING

Asterix i Obelix 1-3 / Ast?rix et Ob?lix 1-3 (1999-2008) PLDUB.720p.BluRay.x264-Destiny / POLSKI DUBBING

http://www.filmweb.pl/Asterix.Obelix.Misja.Kleopatra

czas trwania: 1 godz. 47 min.
gatunek: Familijny, Komedia, Przygodowy
Niemcy, Francja
premiera: 19 lipca 2002 (Polska) 2002-07-19 30 stycznia 2002 (świat) 2002-01-30
reżyseria: Alain Chabat
scenariusz: Alain Chabat

Boska Kleopatra chcąc utrzeć nosa Juliusowi Cezarowi rzuca mu wyzwanie - jej lud w ciągu trzech miesięcy wybuduje najwspanialszy pałac na Ziemi, a Cezar przyzna, że Egipcianie to najpotężniejszy z narodów. Zadanie zostaje przydzielone Numernabisowi, który chcąc wypełnić swą misję zwraca się z prośbą o cudowny eliksir siły do swego starego przyjaciela Panoramixa. W budowie swą pomoc oferują także Asterix i Obelix.

Asterix i Obelix 1-3 / Ast?rix et Ob?lix 1-3 (1999-2008) PLDUB.720p.BluRay.x264-Destiny / POLSKI DUBBING
Asterix i Obelix 1-3 / Ast?rix et Ob?lix 1-3 (1999-2008) PLDUB.720p.BluRay.x264-Destiny / POLSKI DUBBING

Format : Matroska
File size : 5.68 GiB
Duration : 1h 48mn
Overall bit rate : 7 532 Kbps
Format/Info : Advanced Video Codec
Format profile : High@L4.1
Duration : 1h 48mn
Bit rate : 6 742 Kbps
Width : 1 280 pixels
Height : 544 pixels
Display aspect ratio : 2.35:1
Frame rate : 24.000 fps
Stream size : 5.09 GiB (90%)
Title : Release for HDCLUB
Writing library : x264 core 116 r2074 2641b9e
Language : English
Audio
Format : AC-3
Duration : 1h 48mn
Bit rate mode : Constant
Bit rate : 640 Kbps
Channel(s) : 6 channels
Stream size : 494 MiB (8%)
Title : Destiny-Polski


Uwaga! Linki nie zakodowane tylko dla zarejestrowanych użytkowników!

Nie masz konta? Zarejestruj się za darmo!
----------------
Links are not encoded only for registered users only! Plese login or register!






Asterix na olimpiadzie / Ast?rix aux jeux olympiques (2008) PLDUB.720p.BluRay.x264.Destiny / POLSKI DUBBING

Asterix i Obelix 1-3 / Ast?rix et Ob?lix 1-3 (1999-2008) PLDUB.720p.BluRay.x264-Destiny / POLSKI DUBBING

http://www.filmweb.pl/Asterix.Na.Olimpiadzie

czas trwania: 1 godz. 57 min.
gatunek: Familijny, Komedia, Przygodowy
Francja, Niemcy, Hiszpania, Belgia, Włochy
premiera: 25 stycznia 2008 (Polska) 2008-01-25 13 stycznia 2008 (świat) 2008-01-13
reżyseria: Fr?d?ric Forestier, Thomas Langmann
scenariusz: Alexandre Charlot, Franck Magnier

Zbliżają się pierwsze w historii igrzyska olimpijskie, w których pozwolono wystartować Rzymianom. Galowie stwierdzili, że od podbicia ich kraju przez Juliusza Cezara oni też w jakiejś części są Rzymianami. Postanowili, więc także wystartować. Kiedy ta wiadomość dotarła do obozu Rzymian zaprzestali treningów. Wiedzą przecież od dawna, że z magicznym napojem Galów nikt nie ma szans. Niektórzy jednak wcale nie chcą tak szybko zrezygnować.

Asterix i Obelix 1-3 / Ast?rix et Ob?lix 1-3 (1999-2008) PLDUB.720p.BluRay.x264-Destiny / POLSKI DUBBING
Asterix i Obelix 1-3 / Ast?rix et Ob?lix 1-3 (1999-2008) PLDUB.720p.BluRay.x264-Destiny / POLSKI DUBBING

Format : Matroska
File size : 3.90 GiB
Duration : 1h 57mn
Overall bit rate : 4 765 Kbps
Format/Info : Advanced Video Codec
Format profile : High@L4.1
Duration : 1h 57mn
Bit rate : 4 122 Kbps
Width : 1 280 pixels
Height : 544 pixels
Display aspect ratio : 2.35:1
Frame rate : 24.000 fps
Stream size : 3.30 GiB (85%)
Title : Asterix.Aux.Jeux.Olympiques.720p.BluRay.x264-HDv.0day.Team
Writing library : x264 core 61 r965M 3d2983d
Language : Ukrainian
Audio
Format : AC-3
Duration : 1h 57mn
Bit rate mode : Constant
Bit rate : 640 Kbps
Channel(s) : 6 channels
Stream size : 537 MiB (13%)
Title : Destiny-Polski

Uwaga! Linki nie zakodowane tylko dla zarejestrowanych użytkowników!

Nie masz konta? Zarejestruj się za darmo!
----------------
Links are not encoded only for registered users only! Plese login or register!





Użytkownik VIP

CrashRedVIP

#1 | Dodany: 26 Listopad 2011 15:24

Asterix i Obelix kontra Cezar / Ast?rix et Ob?lix contre C?sar (1999) PLDUB.720p.BluRay.x264-Destiny / POLSKI DUBBING

Format : Matroska
File size : 3.53 GiB
Duration : 1h 50mn
Overall bit rate : 4 589 Kbps
Movie name : Asterix et Obelix contre Cesar (1999) - HDCLUB
Format/Info : Advanced Video Codec
Format profile : High@L4.1
Duration : 1h 50mn
Bit rate : 4 140 Kbps
Width : 1 280 pixels
Height : 548 pixels
Display aspect ratio : 2.35:1
Frame rate : 23.976 fps
Stream size : 3.11 GiB (88%)
Title : Destiny
Writing library : x264 core 67 r1171 2c7cb4c
Language : French
Audio
ID : 2
Format : AC-3
Duration : 1h 50mn
Bit rate mode : Constant
Bit rate : 448 Kbps
Channel(s) : 6 channels
Stream size : 353 MiB (10%)
Title : dESTINY-pOLSKI


Uwaga! Linki nie zakodowane tylko dla zarejestrowanych użytkowników!

Nie masz konta? Zarejestruj się za darmo!
----------------
Links are not encoded only for registered users only! Plese login or register!
Użytkownik VIP

Freedom35VIP

#2 | Dodany: 26 Listopad 2011 15:44

Asterix i Obelix kontra Cezar / Ast?rix et Ob?lix contre C?sar (1999)
PLDUB.720p.BluRay.x264-HDW Dubbing PL


- iNFO - TECH -


- Można pobierać na przemian | Bez hasła -
- All links are interchangeable | No password -

Uwaga! Linki nie zakodowane tylko dla zarejestrowanych użytkowników!

Nie masz konta? Zarejestruj się za darmo!
----------------
Links are not encoded only for registered users only! Plese login or register!

Użytkownik VIP

LokinUżytkownik

#3 | Dodany: 1 Grudzień 2011 22:03

Kiedy następne odcinki w HD
Użytkownik VIP

Ja.Tu.Tylko.WrzucamUżytkownik

#4 | Dodany: 10 Grudzień 2011 18:25

Nie ma już następnych ;D =]
Linki pad?y? Napisz na PW a dodam nowe!

KONTAKT:
E-Mail: ja.tu.tylko.wrzucam@onet.pl
Użytkownik VIP

mini_kFrUżytkownik

#5 | Dodany: 10 Grudzień 2011 21:51

A masz może wcześniejsze wersje ,ale komiksowe ;>!
Cieszyłbym się bardzo i byłbym Tobie wdzięcznym z chęcią bym przypomniał sobie moje ulubione bajki za młodzie?czych lat ;>

Informacje

Jeżeli chcesz skomentować artykuł musisz być zarejestrowany na stronie.