EXSite.pl - Portal ze wszystkim Mamy tutaj wszystko

NIE MASZ JESZCZE KONTA? ZAREJESTRUJ SIĘ ZA DARMO!   
Przypomnij hasło X

Adrenalina 1-2 / Crank 1-2 (20062009) PL.720p.Blu-ray.x264.Crash / POLSKI LEKTOR

Dodał: CrashRed 4 Grudzień 2011 15:24


Adrenalina / Crank (2006) PL.720p.Blu-ray.x264.Crash / POLSKI LEKTOR

Adrenalina 1-2 / Crank 1-2  (20062009) PL.720p.Blu-ray.x264.Crash / POLSKI LEKTOR

Adrenalina 1-2 / Crank 1-2  (20062009) PL.720p.Blu-ray.x264.Crash / POLSKI LEKTOR
http://www.filmweb.pl/film/Adrenalina-2006-264772

czas trwania: 1 godz. 27 min.
gatunek: Akcja
premiera: 31 sierpnia 2006 (świat) 2006-08-31
reżyseria: Mark Neveldine, Brian Taylor
scenariusz: Mark Neveldine, Brian Taylor

Pewnego ranka Chev Chelios (Jason Statham) budzi się w swoim domu z bardzo dziwnym uczuciem. Cały się poci i wszystko mu się rozmazuje. Koło telewizora znajduje płytę CD podpisaną "FUCK YOU". Po jej obejrzeniu wszystko staje się jasne. Chev został zatruty. Gdy się o tym dowiaduje zaczyna demolować swoje mieszkanie i z zaskoczeniem stwierdza, że zawroty głowy i inne objawy mu przeszły. Po kontakcie ze swoim lekarzem wie jak zwalczać działanie trucizny aż do momentu zażycia antidotum. Musi on
robić wszystko aby jego organizm wytwarzał jak najwięcej adrenaliny, która spowalnia działanie środka. Po otrzymaniu tej informacji Chev wyrusza rozpocząć największą rozróbę w historii Hollywood


Adrenalina 1-2 / Crank 1-2  (20062009) PL.720p.Blu-ray.x264.Crash / POLSKI LEKTOR
Adrenalina 1-2 / Crank 1-2  (20062009) PL.720p.Blu-ray.x264.Crash / POLSKI LEKTOR

Format : Matroska
File size : 4.26 GiB
Duration : 1h 27mn
Overall bit rate : 6 952 Kbps
Format/Info : Advanced Video Codec
Format profile : Main@L5.1
Duration : 1h 27mn
Bit rate : 6 501 Kbps
Width : 1 280 pixels
Height : 720 pixels
Display aspect ratio : 16:9
Frame rate : 23.976 fps
Stream size : 3.90 GiB (92%)
Writing library : x264 core 54 svn-654
Language : English
Audio
Format : AC-3
Duration : 1h 27mn
Bit rate mode : Constant
Bit rate : 448 Kbps
Channel(s) : 6 channels
Stream size : 281 MiB (6%)
Title : Crash-Polski



Adrenalina 1-2 / Crank 1-2  (20062009) PL.720p.Blu-ray.x264.Crash / POLSKI LEKTOR
Uwaga! Linki nie zakodowane tylko dla zarejestrowanych użytkowników!

Nie masz konta? Zarejestruj się za darmo!
----------------
Links are not encoded only for registered users only! Plese login or register!






Adrenalina 2. Pod napięciem / Crank: High Voltage (2009) PL.720p.BluRay.x264-Crash / POLSKI LEKTOR

Adrenalina 1-2 / Crank 1-2  (20062009) PL.720p.Blu-ray.x264.Crash / POLSKI LEKTOR

http://www.filmweb.pl/film/Adrenalina+2.+Pod+napi%C4%99ciem-2009-463637

czas trwania: 1 godz. 36 min.
gatunek: Akcja
premiera: 24 lipca 2009 (Polska) 2009-07-24 16 kwietnia 2009 (świat) 2009-04-16
reżyseria: Mark Neveldine, Brian Taylor
scenariusz: Mark Neveldine, Brian Taylor

Bohater kultowego filmu "Adrenalina", płatny zabójca Chev Chelios (Jason Statham), znów ma kłopoty. Wpada w ręce chi?skiego gangstera, który wycina mu serce i zastępuje je elektronicznym akumulatorem. Chcąc pozostać przy życiu i odszukać skradziony organ, Chev zamiast adrenaliny potrzebuje wysokiego napięcia, które utrzyma działanie wszczepionego mu urządzenia. "Adrenalina 2 : Pod napięciem", to genialne, dynamiczne, kipiące od adrenaliny kino akcji, połączone z solidna dawką humoru i
zwie?czone niecodziennym zako?czeniem. "Adrenalina 2 : Pod napięciem", to film, który da ci kopa!


Format : Matroska
File size : 6.55 GiB
Duration : 1h 35mn
Overall bit rate : 9 787 Kbps
Format/Info : Advanced Video Codec
Format profile : High@L4.1
Duration : 1h 35mn
Bit rate : 9 400 Kbps
Width : 1 280 pixels
Height : 694 pixels
Display aspect ratio : 16:9
Frame rate : 23.976 fps
Stream size : 6.16 GiB (94%)
Title : Crank 2 2009 720p
Writing library : x264 core 75 r1251M e553a4c
Language : English
Audio
Format : AC-3
Duration : 1h 35mn
Bit rate mode : Constant
Bit rate : 384 Kbps
Channel(s) : 6 channels
Stream size : 263 MiB (4%)
Title : Crash-Polski


Uwaga! Linki nie zakodowane tylko dla zarejestrowanych użytkowników!

Nie masz konta? Zarejestruj się za darmo!
----------------
Links are not encoded only for registered users only! Plese login or register!




Użytkownik VIP

CrashRedVIP

#1 | Dodany: 26 Listopad 2011 15:53

Adrenalina 2. Pod napięciem / Crank: High Voltage (2009) PL.1080p.BluRay.x264-PELE144 / POLSKI LEKTOR

Format : Matroska
File size : 8.18 GiB
Duration : 1h 35mn
Overall bit rate : 12.2 Mbps
Video
Format : AVC
Format profile : High@L4.1
Duration : 1h 35mn
Bit rate : 10.4 Mbps
Width : 1 920 pixels
Height : 1 040 pixels
Display aspect ratio : 16:9
Frame rate : 23.976 fps
Stream size : 6.75 GiB (83%)
Title : 1080p (1080x1040)
Writing library : x264 core 72 r1217M 5e9ae4c
Audio #1
Format : DTS
Duration : 1h 35mn
Bit rate mode : Constant
Bit rate : 1 510 Kbps
Channel(s) : 6 channels
Stream size : 1.01 GiB (12%)
Title : English (DTS 5.1 1510 kbps)
Language : English
Audio #2
Format/Info : Audio Coding 3
Duration : 1h 35mn
Bit rate : 384 Kbps
Channel(s) : 6 channels
Delay relative to video : 1s 600ms
Stream size : 263 MiB (3%)
Title : Polish (AC3 5.1 384 kbps)
Language : Polish
Text #1
Title : Czech
Language : Czech

Text #2
Title : English
Language : English

Text #3
Title : Polish
Language : Polish


Uwaga! Linki nie zakodowane tylko dla zarejestrowanych użytkowników!

Nie masz konta? Zarejestruj się za darmo!
----------------
Links are not encoded only for registered users only! Plese login or register!

Informacje

Jeżeli chcesz skomentować artykuł musisz być zarejestrowany na stronie.