EXSite.pl - Portal ze wszystkim Mamy tutaj wszystko

NIE MASZ JESZCZE KONTA? ZAREJESTRUJ SIĘ ZA DARMO!   
Przypomnij hasło X

Dungeon Siege: W imię króla / In the Name of the King: A Dungeon Siege Tale (2007) PL.1080p.BluRay.x264-Crash / POLSKI LEKTOR

Dodał: CrashRed 26 Listopad 2011 16:17


Dungeon Siege: W imię króla / In the Name of the King: A Dungeon Siege Tale (2007) PL.1080p.BluRay.x264-Crash / POLSKI LEKTOR

Dungeon Siege: W imię króla / In the Name of the King: A Dungeon Siege Tale (2007) PL.1080p.BluRay.x264-Crash / POLSKI LEKTOR

Dungeon Siege: W imię króla / In the Name of the King: A Dungeon Siege Tale (2007) PL.1080p.BluRay.x264-Crash / POLSKI LEKTOR
http://www.filmweb.pl/film/Dungeon+Siege+W+imi%C4%99+kr%C3%B3la-2007-219556

czas trwania: 2 godz. 7 min.
gatunek: Fantasy, Przygodowy
Niemcy, USA, Kanada
premiera: 3 listopada 2006 (świat) 2006-11-03
reżyseria: Uwe Boll
scenariusz: Glenn M. Benest, David Freeman

Królestwo Ebb zostaje zaatakowane przez hordy okrutnych Krogów. Na czele potworów staje potężny mag Gallian (Ray Liotta). Tymczasem gdzieś na obrzeżach królestwa w okolicach miasta Stonebridge wiedzie spokojny żywot człowiek nazywany przez wszystkich Farmerem (Jason Statham). Pewnego dnia miasto zostaje zaatakowane przez Krogi. Syn Farmera zostaje zabity, a żona uprowadzona. Farmer wyrusza więc na ratunek wraz z przyjacielem Norickiem i bratem żony. Nim uratuje żonę będzie zmuszony stanąć przeciwko armii Galliana. Ekranizacja znanej gry komputerowej.


Dungeon Siege: W imię króla / In the Name of the King: A Dungeon Siege Tale (2007) PL.1080p.BluRay.x264-Crash / POLSKI LEKTOR
Dungeon Siege: W imię króla / In the Name of the King: A Dungeon Siege Tale (2007) PL.1080p.BluRay.x264-Crash / POLSKI LEKTOR

Format : Matroska
File size : 11.0 GiB
Duration : 2h 7mn
Overall bit rate : 12.4 Mbps
Format/Info : Advanced Video Codec
Format profile : High@L4.1
Duration : 2h 7mn
Bit rate : 12.0 Mbps
Width : 1 920 pixels
Height : 1 080 pixels
Display aspect ratio : 16:9
Frame rate : 23.976 fps
Stream size : 10.4 GiB (94%)
Title : Crash
Writing library : x264 core 92 r1510 33d382a
Format : AC-3
Duration : 2h 7mn
Bit rate mode : Constant
Bit rate : 448 Kbps
Channel(s) : 6 channels
Stream size : 407 MiB (4%)



Dungeon Siege: W imię króla / In the Name of the King: A Dungeon Siege Tale (2007) PL.1080p.BluRay.x264-Crash / POLSKI LEKTOR
Uwaga! Linki nie zakodowane tylko dla zarejestrowanych użytkowników!

Nie masz konta? Zarejestruj się za darmo!
----------------
Links are not encoded only for registered users only! Plese login or register!



Użytkownik VIP

CrashRedVIP

#1 | Dodany: 26 Listopad 2011 16:18

ok
Użytkownik VIP

Szyszu2909Użytkownik

#2 | Dodany: 8 Styczeń 2014 14:49

można odświeżyć linki do pobrania byłbym bardzo wdzięczny

Informacje

Jeżeli chcesz skomentować artykuł musisz być zarejestrowany na stronie.