EXSite.pl - Portal ze wszystkim Mamy tutaj wszystko

NIE MASZ JESZCZE KONTA? ZAREJESTRUJ SIĘ ZA DARMO!   
Przypomnij hasło X

Air Force One (1997) PL.Bluray.1080p.BluRay.x264-Crash / POLSKI LEKTOR

Dodał: CrashRed 26 Listopad 2011 16:34


Air Force One (1997) PL.Bluray.1080p.BluRay.x264-Crash / POLSKI LEKTOR

Air Force One (1997) PL.Bluray.1080p.BluRay.x264-Crash / POLSKI LEKTOR

Air Force One (1997) PL.Bluray.1080p.BluRay.x264-Crash / POLSKI LEKTOR
http://www.filmweb.pl/film/Air+Force+One-1997-3

czas trwania: 2 godz. 4 min.
gatunek: Sensacyjny
premiera: 27 lutego 1998 (Polska) 1998-02-27 25 lipca 1997 (świat) 1997-07-25
reżyseria: Wolfgang Petersen
scenariusz: Andrew W. Marlowe

Kazachstan. Rosyjskie wojska biorą do niewoli faszyzującego generała Radka, który przejął władzę nad republiką. Moskwa. Ko?czący oficjalną wizytę w Rosji prezydent USA James Marshall wygłasza przemówienie, w którym kategorycznie stwierdza, że jego kraj nigdy już nie podejmie negocjacji z terrorystami. Sugeruje tym samym, że ich dni są policzone... Na pokład startującego z moskiewskiego lotniska prezydenckiego samolotu Air Force One dostaje się grupa terrorystów podających się za rosyjskich
dziennikarzy, Ich przywódcą jest fanatycznie oddany sprawie Rosji Ivan Korshunov, który z pomocą sympatyzującego z nim agenta ameryka?skich służb specjalnych przejmuje kontrolę nad samolotem. Pilotom Air Force One udaje się podejść do lądowania na jednym z lotnisk wojskowych w Niemczech, zostają jednak zabici przez terrorystów, którzy podrywają samolot do dalszego lotu. Prezydent Marshall ukrywa się, wszyscy są przekonani, że udało mu się uciec w kapsule ratunkowej... Ivan Korshunov nawiązuje kontakt z wiceprezydent USA Kathryn Bennett i żąda uwolnienia generała Radka. Grozi, że odmowa spełnienia jego żądania oznacza wyrok śmierci dla zakładników, w tym żony i córki prezydenta Marshalla... Dzięki telefonowi komórkowemu prezydentowi Marshallowi udaje się nawiązać kontakt z Białym Domem. Zakazuje wiceprezydent Bennett jakichkolwiek negocjacji z terrorystami. Sam zabija jednego z porywaczy i zdobywa bro?. Los zakładników jest w jego rękach...


Air Force One (1997) PL.Bluray.1080p.BluRay.x264-Crash / POLSKI LEKTOR
Air Force One (1997) PL.Bluray.1080p.BluRay.x264-Crash / POLSKI LEKTOR

Format : Matroska
File size : 9.71 GiB
Duration : 2h 4mn
Overall bit rate : 11.1 Mbps
Format/Info : Advanced Video Codec
Format profile : High@L4.
Duration : 2h 4mn
Bit rate : 11.0 Mbps
Width : 1 920 pixels
Height : 800 pixels
Display aspect ratio : 2.40:1
Frame rate : 23.976 fps
Stream size : 9.35 GiB (96%)
Title : Air.Force.One.1997.Bluray.1080p.DTSMA.2Audio.x264-Crash
Writing library : x264 core 94 r1583 7608d73
Language : English
Audio
Format : AC-3
Duration : 2h 4mn
Bit rate mode : Constant
Bit rate : 192 Kbps
Channel(s) : 2 channels
Stream size : 171 MiB (2%)
Title : Crash-Polski



Air Force One (1997) PL.Bluray.1080p.BluRay.x264-Crash / POLSKI LEKTOR
Uwaga! Linki nie zakodowane tylko dla zarejestrowanych użytkowników!

Nie masz konta? Zarejestruj się za darmo!
----------------
Links are not encoded only for registered users only! Plese login or register!



Użytkownik VIP

CrashRedVIP

#1 | Dodany: 26 Listopad 2011 16:34

ok

Informacje

Jeżeli chcesz skomentować artykuł musisz być zarejestrowany na stronie.