EXSite.pl - Portal ze wszystkim Mamy tutaj wszystko

NIE MASZ JESZCZE KONTA? ZAREJESTRUJ SIĘ ZA DARMO!   
Przypomnij hasło X

Porachunki / Lock, Stock and Two Smoking Barrels (1998) PL.BluRay.1080p.x264-Destiny / POLSKI LEKTOR

Dodał: CrashRed 26 Listopad 2011 16:59


Porachunki / Lock, Stock and Two Smoking Barrels (1998) PL.BluRay.1080p.x264-Destiny / POLSKI LEKTOR

Porachunki / Lock, Stock and Two Smoking Barrels (1998) PL.BluRay.1080p.x264-Destiny / POLSKI LEKTOR

Porachunki / Lock, Stock and Two Smoking Barrels (1998) PL.BluRay.1080p.x264-Destiny / POLSKI LEKTOR
http://www.filmweb.pl/Porachunki

czas trwania: 1 godz. 47 min.
gatunek: Komedia kryminalna
Wielka Brytania | Komedia kryminalna
premiera: 29 października 1999 (Polska) 1999-10-29 28 sierpnia 1998 (świat) 1998-08-28
reżyseria: Guy Ritchie
scenariusz: Guy Ritchie

Ed (Nick Moran) jest karcianym mistrzem - dla niego karty są praktycznie prześwitujące. Nie istnieje taki ich układ, którego nie odczytałby z twarzy przeciwnika. Pewny swoich zdolności postanawia wziąć udział w rozgrywce o wysokie pieniądze u znanego z brudnych interesów i prowadzenia pornobiznesu Harrego "Hatcheta" Lonsdale'a (P.H. Moriarty). W efekcie nie dość, że traci swoje oszczędności, to zadłuża się jeszcze u gangstera na kolejne 500 000 funtów, które musi zwrócić w ciągu tygodnia. W
odzyskaniu pieniędzy pomagają Edowi trzej kumple - Tom (Jason Flemyng), Soap (Dexter Fletcher) oraz Bacon (Jason Statham).Grupa mężczyzn, podsłuchawszy rozmowę swoich sąsiadów spod ciemnej gwiazdy, opracowuje przewrotny plan zdobycia tej kwoty


Porachunki / Lock, Stock and Two Smoking Barrels (1998) PL.BluRay.1080p.x264-Destiny / POLSKI LEKTOR
Porachunki / Lock, Stock and Two Smoking Barrels (1998) PL.BluRay.1080p.x264-Destiny / POLSKI LEKTOR

Format : Matroska
File size : 12.3 GiB
Duration : 1h 47mn
Overall bit rate : 16.4 Mbps
Format/Info : Advanced Video Codec
Format profile : High@L4.1
Duration : 1h 47mn
Bit rate : 16.0 Mbps
Width : 1 920 pixels
Height : 1 040 pixels
Display aspect ratio : 16:9
Frame rate : 23.976 fps
Stream size : 11.7 GiB (95%)
Title : Destiny H264 - 15975 Kbps
Writing library : x264 core 65 r1069M ed32ad2
Language : English
Audio
Format : AC-3
Duration : 1h 47mn
Bit rate mode : Constant
Bit rate : 448 Kbps
Channel(s) : 6 channels
Stream size : 344 MiB (3%)
Title : Destiny-Polski



Porachunki / Lock, Stock and Two Smoking Barrels (1998) PL.BluRay.1080p.x264-Destiny / POLSKI LEKTOR
Uwaga! Linki nie zakodowane tylko dla zarejestrowanych użytkowników!

Nie masz konta? Zarejestruj się za darmo!
----------------
Links are not encoded only for registered users only! Plese login or register!



Użytkownik VIP

CrashRedVIP

#1 | Dodany: 26 Listopad 2011 16:59

ok
Użytkownik VIP

rocho2kUżytkownik

#2 | Dodany: 29 Listopad 2011 08:38

bardzo dobry film.polecam.
dzięki za wstawkę
Użytkownik VIP

scyouUżytkownik

#3 | Dodany: 15 Sierpień 2013 00:19

prosze o reupload na filepost

Informacje

Jeżeli chcesz skomentować artykuł musisz być zarejestrowany na stronie.