EXSite.pl - Portal ze wszystkim Mamy tutaj wszystko

NIE MASZ JESZCZE KONTA? ZAREJESTRUJ SIĘ ZA DARMO!   
Przypomnij hasło X

Wściekłe psy / Reservoir Dogs (1992) PL.720p.Bluray.x264-Crash / POLSKI LEKTOR +mHD

Dodał: CrashRed 10 Grudzień 2011 16:27


Wściekłe psy / Reservoir Dogs (1992) PL.720p.Bluray.x264-Crash / POLSKI LEKTOR

Wściekłe psy / Reservoir Dogs (1992) PL.720p.Bluray.x264-Crash / POLSKI LEKTOR  +mHD

Wściekłe psy / Reservoir Dogs (1992) PL.720p.Bluray.x264-Crash / POLSKI LEKTOR  +mHD
http://www.filmweb.pl/Wsciekle.Psy

czas trwania: 1 godz. 39 min.
gatunek: Thriller, Gangsterski
premiera: 21 stycznia 1992 (świat) 1992-01-21
reżyseria: Quentin Tarantino
scenariusz: Quentin Tarantino

Po nieudanym napadzie na sklep jubilerski kilku jego uczestników spotyka się w opuszczonym magazynie, by ustalić, kto zdradził policji ich plan. Wściekłe psy to nie znający się wzajemnie, najemni gangsterzy o "kolorowych" pseudonimach. Ich zleceniodawcami są Joe Cabot i jego syn Eddie. Prowadzone przez nich wewnętrzne śledztwo polega na rzucaniu wymyślnych przekle?stw, wzajemnym oskarżaniu i torturowaniu porwanego policjanta.



Wściekłe psy / Reservoir Dogs (1992) PL.720p.Bluray.x264-Crash / POLSKI LEKTOR  +mHD
Wściekłe psy / Reservoir Dogs (1992) PL.720p.Bluray.x264-Crash / POLSKI LEKTOR  +mHD

Format : Matroska
File size : 3.64 GiB
Duration : 1h 39mn
Overall bit rate : 5 251 Kbps
Movie name : High Noon (1952)
Format/Info : Advanced Video Codec
Format profile : High@L4.1
Duration : 1h 39mn
Bit rate : 4 800 Kbps
Width : 1 280 pixels
Height : 544 pixels
Display aspect ratio : 2.35:1
Frame rate : 23.976 fps
Stream size : 3.25 GiB (89%)
Writing library : x264 core 114 r1913 5fd3dce
Language : English
Audio
Format : AC-3
Duration : 1h 39mn
Bit rate mode : Constant
Bit rate : 448 Kbps
Channel(s) : 6 channels
Stream size : 318 MiB (9%)
Title : Crash-Polski



Wściekłe psy / Reservoir Dogs (1992) PL.720p.Bluray.x264-Crash / POLSKI LEKTOR  +mHD
Uwaga! Linki nie zakodowane tylko dla zarejestrowanych użytkowników!

Nie masz konta? Zarejestruj się za darmo!
----------------
Links are not encoded only for registered users only! Plese login or register!





Wściekłe psy / Reservoir Dogs (1992) PL.m720p.BluRay.AC3.x264.Crash / POLSKI LEKTOR

Format : Matroska
File size : 2.18 GiB
Duration : 1h 39mn
Overall bit rate : 3 153 Kbps
Format/Info : Advanced Video Codec
Format profile : High@L4.0
Duration : 1h 39mn
Bit rate mode : Variable
Bit rate : 2 702 Kbps
Maximum bit rate : 25.0 Mbps
Width : 1 280 pixels
Height : 544 pixels
Display aspect ratio : 2.35:1
Frame rate : 23.976 fps
Stream size : 1.83 GiB (84%)
Title : Reservoir Dogs [1992] m720p ~*cyke2702@aRiL*~
Writing library : x264 core 114 r1924 08d04a4
Language : English
Audio
Format : AC-3
Duration : 1h 39mn
Bit rate mode : Constant
Bit rate : 448 Kbps
Channel(s) : 6 channels
Stream size : 318 MiB (14%)
Title : Crash-Polski


Uwaga! Linki nie zakodowane tylko dla zarejestrowanych użytkowników!

Nie masz konta? Zarejestruj się za darmo!
----------------
Links are not encoded only for registered users only! Plese login or register!




Użytkownik VIP

CrashRedVIP

#1 | Dodany: 26 Listopad 2011 18:26

ok
Użytkownik VIP

dziad997Użytkownik

#2 | Dodany: 21 Styczeń 2012 20:22

Reservoir Dogs / Wściekłe psy (1992) DVDRip XviD Napisy PL

Uwaga! Linki nie zakodowane tylko dla zarejestrowanych użytkowników!

Nie masz konta? Zarejestruj się za darmo!
----------------
Links are not encoded only for registered users only! Plese login or register!
Użytkownik VIP

ircikkUżytkownik

#3 | Dodany: 22 Kwiecień 2012 00:46

Wstawi ktoś wersję 480p ?

Informacje

Jeżeli chcesz skomentować artykuł musisz być zarejestrowany na stronie.