EXSite.pl - Portal ze wszystkim Mamy tutaj wszystko

NIE MASZ JESZCZE KONTA? ZAREJESTRUJ SIĘ ZA DARMO!   
Przypomnij hasło X

Drakula / Dracula (1992) PL.720p.BluRay.DTS.x264-Crash / POLSKI LEKTOR +mHD

Dodał: CrashRed 11 Grudzień 2011 16:53


Drakula / Dracula (1992) PL.720p.BluRay.DTS.x264-Crash / POLSKI LEKTOR +mHD

Drakula / Dracula (1992) PL.720p.BluRay.DTS.x264-Crash / POLSKI LEKTOR +mHD

Drakula / Dracula (1992) PL.720p.BluRay.DTS.x264-Crash / POLSKI LEKTOR +mHD
http://www.filmweb.pl/Drakula

czas trwania: 2 godz. 8 min.
gatunek: Horror
premiera: 31 grudnia 1992 (Polska) 1992-12-31 13 listopada 1992 (świat) 1992-11-13
reżyseria: Francis Ford Coppola
scenariusz: James V. Hart

Film zaczyna się w XV wieku, kiedy to rumu?ski książę Vlad (Oldman) wyrusza na wojnę, aby bronić chrześcijan przed najazdem Turków. W swoim zamku zostawia ukochaną Elizabettę (Ryder). Vlad wychodzi zwycięsko z wojny, zanim jednak zdążył wrócić do siebie, podstępni wrogowie wysyłają do jego ukochanej wiadomość, że książę nie żyje. Zrozpaczona Elizabetta nie mogąc pogodzić się z jego śmiercią, skacze do rzeki. Kiedy Vlad przybywa do domu, dowiaduje się, że kapłani nie mają zamiaru pochować
księżniczki, gdyż odebrała sobie życie. Wściekły książę niszczy kaplicę, wyrzeka się Boga i obiecuje dokonać zemsty przy użyciu złych sił. Przenosimy się do XIX wieku. Młody prawnik, Jonathan Harker (Reeves) dostaje zlecenie - ma zastąpić kolegę po fachu, Renfielda (Waits), który po powrocie z Rumunii został zamknięty w mrocznym zakładzie dla obłąkanych. Harker żegna się ze swoją ukochaną, Miną, która na ten czas zamieszka u swojej przyjaciółki, Lucy (Frost). Dziewczyna jest trochę zawiedziona, że kolejny raz muszą przekładać ślub. Harker przybywa do zamku hrabiego, lekko zdezorientowany niesamowitymi zjawiskami, które widział po drodze. Gospodarz również sprawia dziwne wrażenie, ale w ko?cu podpisuje akt zakupu kilku terenów w Anglii. Podczas rozmowy z prawnikiem, hrabia dostrzega zdjęcie Miny i rozpoznaje w niej swoją ukochaną sprzed wieków. Postanawia szybko zadziałać i zmusza Jonathana do zostania w zamku na miesiąc. Ten po spotkaniu z wampirzycami już nie ma wątpliwości, że miły klient jest potworem, nie może jednak się wydostać z jego siedziby. Dracula organizuje sobie wyprawę do Anglii, po drodze mordując całą załogę statku przybiera ciało młodego i przystojnego mężczyzny. W Londynie spotyka na ulicy Minę...


Drakula / Dracula (1992) PL.720p.BluRay.DTS.x264-Crash / POLSKI LEKTOR +mHD
Drakula / Dracula (1992) PL.720p.BluRay.DTS.x264-Crash / POLSKI LEKTOR +mHD

Format : Matroska
File size : 7.02 GiB
Duration : 2h 7mn
Overall bit rate : 8 215 Kbps
Video
Format : AVC
Format/Info : Advanced Video Codec
Format profile : High@L5.1
Duration : 2h 7mn
Bit rate : 5 231 Kbps
Width : 1 280 pixels
Height : 688 pixels
Display aspect ratio : 1.860
Frame rate : 23.976 fps
Stream size : 5.07 GiB (71%)
Writing library : x264 core 56 svn-680
Language : English
Audio #1
Format : DTS
Duration : 2h 7mn
Bit rate mode : Constant
Bit rate : 1 510 Kbps
Channel(s) : 6 channels
Stream size : 1.34 GiB (19%)
Language : English
Audio #2
Format : AC-3
Duration : 2h 7mn
Bit rate mode : Constant
Bit rate : 480 Kbps
Channel(s) : 6 channels
Stream size : 583 MiB (8%)
Title : Crash-Polski



Drakula / Dracula (1992) PL.720p.BluRay.DTS.x264-Crash / POLSKI LEKTOR +mHD
Uwaga! Linki nie zakodowane tylko dla zarejestrowanych użytkowników!

Nie masz konta? Zarejestruj się za darmo!
----------------
Links are not encoded only for registered users only! Plese login or register!





Drakula / Dracula (1992) PL.m-720p.BluRay.x264-Crash / POLSKI LEKTOR

Format : Matroska
File size : 2.79 GiB
Duration : 2h 7mn
Overall bit rate : 3 135 Kbps
Format/Info : Advanced Video Codec
Format profile : High@L4.1
Duration : 2h 7mn
Bit rate : 2 500 Kbps
Width : 1 280 pixels
Height : 688 pixels
Display aspect ratio : 1.860
Frame rate : 23.976 fps
Stream size : 2.16 GiB (78%)
Writing library : x264 core 115 r1995 c1e60b9
Language : English
Audi
Format : AC-3
Duration : 2h 7mn
Bit rate mode : Constant
Bit rate : 640 Kbps
Channel(s) : 6 channels
Stream size : 583 MiB (20%)
Title : Crash-Polski

Uwaga! Linki nie zakodowane tylko dla zarejestrowanych użytkowników!

Nie masz konta? Zarejestruj się za darmo!
----------------
Links are not encoded only for registered users only! Plese login or register!




Użytkownik VIP

CrashRedVIP

#1 | Dodany: 26 Listopad 2011 19:01

ok
Użytkownik VIP

qgrzegorzGość

#2 | Dodany: 11 Marzec 2012 08:09

Drakula / Bram Stoker's Dracula (1992) PL.1080p.BluRay.x264

Dane Techniczne:
General           : Bram.Stoker's.Dracula.1992.PL.1080p.BluRay.x264.mkv
Format            : Matroska at 14,0 Mb/s
Length            : 12,5 GB for 2h 7 min. 22s 656ms

Video #0          : AVC at 11,9 Mb/s
Aspect            : 1920 x 1040 (1.846) at 23.976 fps

Audio #0          : AC-3 at 640 Kb/s
Infos             : 6 kanałów, 48,0 KHz
Language          : pl

Audio #1          : DTS at 1.510 Kb/s
Infos             : 6 kanałów, 48,0 KHz
Language          : en

Text #0           : UTF-8
Language          : pl

INFO Lektor: lektor profesjonalny
Źródło obrazu: *Blu-ray/DVD*


Opis uploadu:
wielkość całości: 13.84 GB
rodzaj kompresji: .rar
zawartość uploadu: plik .mkv
wersja językowa: PL\EN
Dane naprawcze:10%


Download:
Uwaga! Linki nie zakodowane tylko dla zarejestrowanych użytkowników!

Nie masz konta? Zarejestruj się za darmo!
----------------
Links are not encoded only for registered users only! Plese login or register!


HASŁO:
filmik

Martwe linki.Pisz na PW zrobie reupload.

Informacje

Jeżeli chcesz skomentować artykuł musisz być zarejestrowany na stronie.