EXSite.pl - Portal ze wszystkim Mamy tutaj wszystko

NIE MASZ JESZCZE KONTA? ZAREJESTRUJ SIĘ ZA DARMO!   
Przypomnij hasło X

Alicja w Krainie Czarów / Alice in Wonderland (1951) PL.720p.BluRay.x264-EbP / POLSKI DUBBING

Dodał: CrashRed 26 Listopad 2011 19:20


Alicja w Krainie Czarów / Alice in Wonderland (1951) PL.720p.BluRay.x264-EbP / POLSKI DUBBING

Alicja w Krainie Czarów / Alice in Wonderland (1951) PL.720p.BluRay.x264-EbP / POLSKI DUBBING

Alicja w Krainie Czarów / Alice in Wonderland (1951) PL.720p.BluRay.x264-EbP / POLSKI DUBBING
http://www.filmweb.pl/film/Alicja+w+Krainie+Czar%C3%B3w-1951-108102

czas trwania: 1 godz. 15 min.
gatunek: Animacja, Familijny, Fantasy, Przygodowy
premiera: 26 lipca 1951 (świat) 1951-07-26
reżyseria: Hamilton Luske, Clyde Geronimi
scenariusz: Winston Hibler, Ted Sears

Jedna z pierwszych animowanych realizacji słynnych przygód Alicji w Krainie Czarów. Alicja wpada do króliczej nory i rozpoczyna wędrówkę po niezwykłym, ciekawym i czasem bardzo dziwacznym świecie. Spotyka zarówno przyjazne jak i wrogie postacie, by ostatecznie skonfrontować się z gniewną i surową Królową Kier.


Format : Matroska
File size : 2.68 GiB
Duration : 1h 15mn
Overall bit rate : 5 099 Kbps
Video
ID : 1
Format : AVC
Format profile : High@L4.1
Duration : 1h 15mn
Bit rate : 4 904 Kbps
Width : 948 pixels
Height : 720 pixels
Display aspect ratio : 4:3
Frame rate : 23.976 fps
Stream size : 2.53 GiB (94%)
Title : Alice in Wonderland 1951 720p BluRay x264-EbP
Writing library : x264 core 114 r1900 60ef1f8
Language : English
Audio
Format : AC-3
Duration : 1h 15mn
Bit rate mode : Constant
Bit rate : 192 Kbps
Channel(s) : 2 channels
Stream size : 103 MiB (4%)
Language : Polish



Alicja w Krainie Czarów / Alice in Wonderland (1951) PL.720p.BluRay.x264-EbP / POLSKI DUBBING
Uwaga! Linki nie zakodowane tylko dla zarejestrowanych użytkowników!

Nie masz konta? Zarejestruj się za darmo!
----------------
Links are not encoded only for registered users only! Plese login or register!



Użytkownik VIP

CrashRedVIP

#1 | Dodany: 26 Listopad 2011 19:20

ok
Użytkownik VIP

jaku1978VIP

#2 | Dodany: 26 Listopad 2011 19:22

hehe nie ta kategoria..Bajki/kreskowki a nie hd dvd5 ...;-)
Użytkownik VIP

CrashRedVIP

#3 | Dodany: 26 Listopad 2011 19:29

jaku1978,
ciekawe rzeczy prawisz panie super , oczywiście to ze jest to w hd nie ma znaczenia prawda? oraz naturalnie wszytkie inne bajki w hd w stylu Rango, Cars itd laduja gdzie indziej ....

Informacje

Jeżeli chcesz skomentować artykuł musisz być zarejestrowany na stronie.