EXSite.pl - Portal ze wszystkim Mamy tutaj wszystko

NIE MASZ JESZCZE KONTA? ZAREJESTRUJ SIĘ ZA DARMO!   
Przypomnij hasło X

Piotru¶ Pan 1-2 / Peter Pan 1-2 (1953-2002) PL.720p.HDTV.x264 / POLSKI DUBBING

Dodał: CrashRed 10 Grudzień 2011 20:46


Piotru¶ Pan / Peter Pan (1953) PL.720p.HDTV.x264 / POLSKI DUBBING

Piotru¶ Pan 1-2 / Peter Pan 1-2  (1953-2002) PL.720p.HDTV.x264 / POLSKI DUBBING

Piotru¶ Pan 1-2 / Peter Pan 1-2  (1953-2002) PL.720p.HDTV.x264 / POLSKI DUBBING
http://www.filmweb.pl/film/Piotru%C5%9B+Pan-1953-35151

czas trwania: 1 godz. 16 min.
gatunek: Animacja, Familijny, Fantasy, Musical
premiera: 5 lutego 1953 (¶wiat) 1953-02-05
reżyseria: Hamilton Luske, Wilfred Jackson (więcej...)
scenariusz: Ted Sears, William Cottrell (więcej...)

Piotru¶ Pan- chłopiec, który nie chciał dorosn±ć- iluż współwyznawców ma na ¶wiecie? Wspaniałe piosenki i scena lotu nad dachami Londynu - warto przypomnieć sobie jeszcze raz.


Format : Matroska
File size : 2.02 GiB
Duration : 1h 17mn
Overall bit rate : 3 733 Kbps
Video
ID : 1
Format : AVC
Format profile : High@L4.1
Duration : 1h 17mn
Bit rate : 3 350 Kbps
Width : 960 pixels
Height : 720 pixels
Display aspect ratio : 4:3
Frame rate : 23.976 fps
Scan type : Progressive
Bits/(Pixel*Frame) : 0.202
Stream size : 1.77 GiB (88%)
Writing library : x264 core 79 r1347M 5ddd61b
Language : English
Audio
Format : AC-3
Duration : 1h 17mn
Bit rate mode : Constant
Bit rate : 384 Kbps
Channel(s) : 2 channels
Stream size : 213 MiB (10%)
Language : Polish



Piotru¶ Pan 1-2 / Peter Pan 1-2  (1953-2002) PL.720p.HDTV.x264 / POLSKI DUBBING
Uwaga! Linki nie zakodowane tylko dla zarejestrowanych użytkowników!

Nie masz konta? Zarejestruj się za darmo!
----------------
Links are not encoded only for registered users only! Plese login or register!






Piotru¶ Pan: Wielki powrót / Return to Never Land (2002) PL.720p.HDTV.x264 / POLSKI DUBBING

Piotru¶ Pan 1-2 / Peter Pan 1-2  (1953-2002) PL.720p.HDTV.x264 / POLSKI DUBBING

http://www.filmweb.pl/film/Piotru%C5%9B+Pan+Wielki+powr%C3%B3t-2002-32202

czas trwania: 1 godz. 12 min.
gatunek: Animacja, Familijny, Musical, Przygodowy
premiera: 12 kwietnia 2002 (Polska) 2002-04-12 10 lutego 2002 (¶wiat) 2002-02-10
reżyseria: Robin Budd, Donovan Cook
scenariusz: J.M. Barrie, Carter Crocker

Kontynuacja jednego z największych przebojów wytwórnia Walta Disneya - "Piotrusia Pana". Bohaterk± obrazu jest córka Wandy - Jane, która w czasie II Wojny ¶wiatowej zostaje porwana przez kapitana Haka i uprowadzona do Nibylandii. Uratować może j± tylko Piotru¶ Pan.

Format : Matroska
File size : 2.53 GiB
Duration : 1h 12mn
Overall bit rate : 4 997 Kbps
Video
ID : 1
Format/Info : Advanced Video Codec
Format profile : High@L4.1
Duration : 1h 12mn
Bit rate mode : Variable
Bit rate : 4 513 Kbps
Width : 1 280 pixels
Height : 720 pixels
Display aspect ratio : 16:9
Frame rate : 23.976 fps
Stream size : 2.29 GiB (90%)
Writing library : VoLoNa by CMEGroup
Language : English
Audio
Format : AC-3
Duration : 1h 12mn
Bit rate mode : Constant
Bit rate : 384 Kbps
Channel(s) : 2 channels
Stream size : 199 MiB (8%)
Language : Polish


Uwaga! Linki nie zakodowane tylko dla zarejestrowanych użytkowników!

Nie masz konta? Zarejestruj się za darmo!
----------------
Links are not encoded only for registered users only! Plese login or register!



Użytkownik VIP

CrashRedVIP

#1 | Dodany: 26 Listopad 2011 19:48

ok

Informacje

Jeżeli chcesz skomentować artykuł musisz być zarejestrowany na stronie.