EXSite.pl - Portal ze wszystkim Mamy tutaj wszystko

NIE MASZ JESZCZE KONTA? ZAREJESTRUJ SIĘ ZA DARMO!   
Przypomnij hasło X

Nowe szaty króla 1-2 / The Emperor's New Groove 1-2 (2000-2005) PL.m720p.HDTV.x264 / POLSKI DUBBING

Dodał: CrashRed 10 Grudzień 2011 20:23


Nowe szaty króla / The Emperor's New Groove (2000) PL.m720p.HDTV.x264 / POLSKI DUBBING

Nowe szaty króla 1-2 / The Emperor's New Groove 1-2 (2000-2005) PL.m720p.HDTV.x264 / POLSKI DUBBING

Nowe szaty króla 1-2 / The Emperor's New Groove 1-2 (2000-2005) PL.m720p.HDTV.x264 / POLSKI DUBBING
http://www.filmweb.pl/film/Nowe+szaty+kr%C3%B3la-2000-5409

czas trwania: 1 godz. 18 min.
gatunek: Animacja, Familijny, Przygodowy
premiera: 13 kwietnia 2001 (Polska) 2001-04-13 10 grudnia 2000 (świat) 2000-12-10
reżyseria: Mark Dindal
scenariusz: David Reynolds

Film animowany ze studia Walta Disney'a z piosenkami Stinga. Jego bohaterem jest młody, porywczy władca, który na skutek zbiegu okoliczności zamieniony zostaje w lamę i musi pokonać wiele przeszkód, by powrócić do ludzkiej postaci i odzyskać tron.


Format : Matroska
File size : 1.25 GiB
Duration : 1h 15mn
Overall bit rate : 2 380 Kbps
Video
ID : 1
Format : AVC
Format/Info : Advanced Video Codec
Format profile : High@L4.1
Bit rate : 2 013 Kbps
Width : 1 216 pixels
Height : 720 pixels
Display aspect ratio : 1.689
Frame rate : 25.000 fps
Stream size : 1.06 GiB (85%)
Title : FilmyHD.net
Writing library : x264 core 105 r1724 b02df7b
Language : English
Audio
ID : 2
Format : AC-3
Duration : 1h 15mn
Bit rate mode : Constant
Bit rate : 320 Kbps
Channel(s) : 2 channels
Stream size : 172 MiB (13%)
Language : Polish



Nowe szaty króla 1-2 / The Emperor's New Groove 1-2 (2000-2005) PL.m720p.HDTV.x264 / POLSKI DUBBING
Uwaga! Linki nie zakodowane tylko dla zarejestrowanych użytkowników!

Nie masz konta? Zarejestruj się za darmo!
----------------
Links are not encoded only for registered users only! Plese login or register!





Nowe Szaty Króla 2: Kronk - nowe wcielenie / The Emperor's New Groove 2: Kronk's New Groove (2005) PL.m720p.HDTV.x264 / POLSKI DUBBING

Nowe szaty króla 1-2 / The Emperor's New Groove 1-2 (2000-2005) PL.m720p.HDTV.x264 / POLSKI DUBBING

http://www.filmweb.pl/film/Nowe+Szaty+Kr%C3%B3la+2+Kronk+-+nowe+wcielenie-2005-119645

czas trwania: 1 godz. 12 min.
gatunek: Animacja, Familijny, Komedia
premiera: 29 listopada 2005 (świat) 2005-11-29
reżyseria: Saul Andrew Blinkoff, Elliot M. Bour
scenariusz: Tom Rogers

Po dzikich i zwariowanych przygodach z Pachą i królem Kuzko, pełen uroku osiłek, były giermek rządnej władzy Yzmy, wiedzie szczęśliwe i spokojne życie jako szef kuchni we własnej restauracji. Rozpoczyna się jednak zupełnie nowa, szalona przygoda, gdy u Kronka zjawia się lama z informacją, że jego tata wybiera się do niego z wizytą. Chcąc popisać się przed tatą i wyglądać na prawdziwego człowieka sukcesu, za sprawą przebiegłej czarownicy Yzmy, Kronk zgotował sobie nie lada kłopoty.

Format : Matroska
File size : 1.47 GiB
Duration : 1h 11mn
Overall bit rate : 2 930 Kbps
Video
ID : 1
Format : AVC
Format profile : High@L4.1
Duration : 1h 11mn
Bit rate : 2 610 Kbps
Width : 1 276 pixels
Height : 720 pixels
Display aspect ratio : 16:9
Frame rate : 25.000 fps
Stream size : 1.28 GiB (87%)
Writing library : x264 core 105 r1732 2b04482
Language : English
Audio
Format : AC-3
Duration : 1h 11mn
Bit rate mode : Constant
Bit rate : 320 Kbps
Channel(s) : 2 channels
Stream size : 164 MiB (11%)
Language : Polish


Uwaga! Linki nie zakodowane tylko dla zarejestrowanych użytkowników!

Nie masz konta? Zarejestruj się za darmo!
----------------
Links are not encoded only for registered users only! Plese login or register!



Użytkownik VIP

CrashRedVIP

#1 | Dodany: 26 Listopad 2011 20:20

ok
Użytkownik VIP

Baal71Użytkownik

#2 | Dodany: 26 Listopad 2011 21:21

a co z 2? belay
Użytkownik VIP

IreniaUżytkownik

#3 | Dodany: 11 Grudzień 2011 11:35

thx
Użytkownik VIP

easerUżytkownik

#4 | Dodany: 27 Lipiec 2012 11:39

Można prosić o ponowne wrzucenie ? linki

Informacje

Jeżeli chcesz skomentować artykuł musisz być zarejestrowany na stronie.