EXSite.pl - Portal ze wszystkim Mamy tutaj wszystko

NIE MASZ JESZCZE KONTA? ZAREJESTRUJ SIĘ ZA DARMO!   
Przypomnij hasło X

Zathura - Kosmiczna przygoda / Zathura: A Space Adventure (2005) PLDUB.720p.BluRay.X264-Crash / POLSKI DUBBING / [Dual Audio]

Dodał: CrashRed 27 Listopad 2011 15:10


Zathura - Kosmiczna przygoda / Zathura: A Space Adventure (2005) PLDUB.720p.BluRay.X264-Crash / POLSKI DUBBING / [Dual Audio]

Zathura - Kosmiczna przygoda / Zathura: A Space Adventure (2005) PLDUB.720p.BluRay.X264-Crash / POLSKI DUBBING / [Dual Audio]

Zathura - Kosmiczna przygoda / Zathura: A Space Adventure (2005) PLDUB.720p.BluRay.X264-Crash / POLSKI DUBBING / [Dual Audio]


http://www.filmweb.pl/Zathura.Kosmiczna.Przygoda

czas trwania: 1 godz. 53 min.
gatunek: Fantasy, Przygodowy
premiera: 20 stycznia 2006 (Polska) 2006-01-20 6 listopada 2005 (świat) 2005-11-06
reżyseria: Jon Favreau
scenariusz: John Kamps, David Koepp

"Zathura. Kosmiczna przygoda" to ekranizacja powieści znanego pisarza dziecięcego Chrisa Van Allsburga. Dwaj bracia Danny i Walter w piwnicy znajdują stare pudełko, w którym znajduje się gra, zwana Zathura. Chłopcy za pomocą gry przenoszą się w kosmos. Tam muszą stawić czoła wszelkim jaszczurkom, piratom, i wytrzymać deszcz meteorytów, jeśli im się nie uda dotrzeć do planety Zathura na zawsze zostaną uwięzieni w kosmosie.



Format : Matroska
File size : 4.81 GiB
Duration : 1h 41mn
Overall bit rate : 6 802 Kbps
Video
Format/Info : Advanced Video Codec
Format profile : High@L4.1
Duration : 1h 41mn
Bit rate : 4 651 Kbps
Width : 1 280 pixels
Height : 688 pixels
Display aspect ratio : 1.860
Frame rate : 23.976 fps
Stream size : 3.20 GiB (66%)
Writing library : x264 core 115 r2008 4c552d8
Language : English
Audio #1
Format : DTS
Duration : 1h 41mn
Bit rate mode : Constant
Bit rate : 1 510 Kbps
Channel(s) : 6 channels
Stream size : 1.07 GiB (22%)
Language : English
Audio #
Format : AC-3
Duration : 1h 41mn
Bit rate mode : Constant
Bit rate : 640 Kbps
Channel(s) : 6 channels
Stream size : 464 MiB (9%)
Title : Crash-Polski



Zathura - Kosmiczna przygoda / Zathura: A Space Adventure (2005) PLDUB.720p.BluRay.X264-Crash / POLSKI DUBBING / [Dual Audio]
Uwaga! Linki nie zakodowane tylko dla zarejestrowanych użytkowników!

Nie masz konta? Zarejestruj się za darmo!
----------------
Links are not encoded only for registered users only! Plese login or register!



Użytkownik VIP

CrashRedVIP

#1 | Dodany: 27 Listopad 2011 15:10

Zathura - Kosmiczna przygoda / Zathura: A Space Adventure (2005) PL.1080p.BluRay.X264-Crash / POLSKI DUBBING / [Dual Audio]
Format : Matroska
File size : 8.10 GiB
Duration : 1h 41mn
Overall bit rate : 11.4 Mbps
Video
Format/Info : Advanced Video Codec
Format profile : High@L4.1
Duration : 1h 41mn
Bit rate : 9 300 Kbps
Width : 1 920 pixels
Height : 1 040 pixels
Display aspect ratio : 16:9
Frame rate : 23.976 fps
Bits/(Pixel*Frame) : 0.194
Stream size : 6.42 GiB (79%)
Writing library : x264 core 115 r2008 4c552d8
Language : English
Audio #1
ID : 2
Format : DTS
Duration : 1h 41mn
Bit rate mode : Constant
Bit rate : 1 510 Kbps
Channel(s) : 6 channels
Stream size : 1.07 GiB (13%)
Language : English
Audio #2
ID : 4
Format : AC-3
Duration : 1h 41mn
Bit rate mode : Constant
Bit rate : 640 Kbps
Channel(s) : 6 channels
Stream size : 464 MiB (6%)
Title : CRASH-POLSKI
Language : Polish

Text
Language : English

Uwaga! Linki nie zakodowane tylko dla zarejestrowanych użytkowników!

Nie masz konta? Zarejestruj się za darmo!
----------------
Links are not encoded only for registered users only! Plese login or register!

Użytkownik VIP

H1sVIP Uploader

#2 | Dodany: 28 Listopad 2011 12:06

Zathura HD 720p Dubbing PL / EN
NAZWA RELEASU: Zathura.Kosmiczna.przygoda.2005.PLDUB.HDTV.720p.x264-LTN
ŹRÓDŁO: Zathura.A.Space.Adventure.2005.HDTV.720p.x264-HDL
OGÓLNE: Matroska, mkv, 4.64GB, 1h 41mn 20s 372ms
WIDEO: 1280x688 (720p), AVC ~ 5790 Kbps, FPS: 23.976, High@L5.1
AUDIO: Polski Dubbing (profesjonalny) AC3 5.1 ~ 384 kbps, Angielski AC3 5.1 ~ 384 kbps
NAPISY: Brak
INFORMACJE EXTRA: Party można pobierać naprzemiennie, Party zawierają dane naprawcze

FileServe:

http://www.fileserve.com/file/q4HbF6M/Zathura.Kosmiczna.przygoda.2005.PLDUB.HDTV.720p.x264-LTN.part01.rar
http://www.fileserve.com/file/ZUr2GSR/Zathura.Kosmiczna.przygoda.2005.PLDUB.HDTV.720p.x264-LTN.part02.rar
http://www.fileserve.com/file/usFa9QX/Zathura.Kosmiczna.przygoda.2005.PLDUB.HDTV.720p.x264-LTN.part03.rar
http://www.fileserve.com/file/j72ngZx/Zathura.Kosmiczna.przygoda.2005.PLDUB.HDTV.720p.x264-LTN.part04.rar
http://www.fileserve.com/file/DEGr4Gh/Zathura.Kosmiczna.przygoda.2005.PLDUB.HDTV.720p.x264-LTN.part05.rar
http://www.fileserve.com/file/NXCX8Hv/Zathura.Kosmiczna.przygoda.2005.PLDUB.HDTV.720p.x264-LTN.part06.rar
http://www.fileserve.com/file/ajGk38Z/Zathura.Kosmiczna.przygoda.2005.PLDUB.HDTV.720p.x264-LTN.part07.rar
http://www.fileserve.com/file/vaF5Age/Zathura.Kosmiczna.przygoda.2005.PLDUB.HDTV.720p.x264-LTN.part08.rar
http://www.fileserve.com/file/df5Jdna/Zathura.Kosmiczna.przygoda.2005.PLDUB.HDTV.720p.x264-LTN.part09.rar
http://www.fileserve.com/file/jwaHS6x/Zathura.Kosmiczna.przygoda.2005.PLDUB.HDTV.720p.x264-LTN.part10.rar


FileSonic:

http://www.filesonic.com/file/1156056341/Zathura.Kosmiczna.przygoda.2005.PLDUB.HDTV.720p.x264-LTN.part01.rar
http://www.filesonic.com/file/1156072641/Zathura.Kosmiczna.przygoda.2005.PLDUB.HDTV.720p.x264-LTN.part02.rar
http://www.filesonic.com/file/1156089731/Zathura.Kosmiczna.przygoda.2005.PLDUB.HDTV.720p.x264-LTN.part03.rar
http://www.filesonic.com/file/1156108121/Zathura.Kosmiczna.przygoda.2005.PLDUB.HDTV.720p.x264-LTN.part04.rar
http://www.filesonic.com/file/1156118351/Zathura.Kosmiczna.przygoda.2005.PLDUB.HDTV.720p.x264-LTN.part05.rar
http://www.filesonic.com/file/1156136161/Zathura.Kosmiczna.przygoda.2005.PLDUB.HDTV.720p.x264-LTN.part06.rar
http://www.filesonic.com/file/1156153981/Zathura.Kosmiczna.przygoda.2005.PLDUB.HDTV.720p.x264-LTN.part07.rar
http://www.filesonic.com/file/1156169211/Zathura.Kosmiczna.przygoda.2005.PLDUB.HDTV.720p.x264-LTN.part08.rar
http://www.filesonic.com/file/1156185851/Zathura.Kosmiczna.przygoda.2005.PLDUB.HDTV.720p.x264-LTN.part09.rar
http://www.filesonic.com/file/1156195631/Zathura.Kosmiczna.przygoda.2005.PLDUB.HDTV.720p.x264-LTN.part10.rar


UploadStation:

http://www.uploadstation.com/file/Fp64hQk/Zathura.Kosmiczna.przygoda.2005.PLDUB.HDTV.720p.x264-LTN.part01.rar
http://www.uploadstation.com/file/knfRnJs/Zathura.Kosmiczna.przygoda.2005.PLDUB.HDTV.720p.x264-LTN.part02.rar
http://www.uploadstation.com/file/BkGFerk/Zathura.Kosmiczna.przygoda.2005.PLDUB.HDTV.720p.x264-LTN.part03.rar
http://www.uploadstation.com/file/KPq95vv/Zathura.Kosmiczna.przygoda.2005.PLDUB.HDTV.720p.x264-LTN.part04.rar
http://www.uploadstation.com/file/2hBwFUu/Zathura.Kosmiczna.przygoda.2005.PLDUB.HDTV.720p.x264-LTN.part05.rar
http://www.uploadstation.com/file/6nGHUac/Zathura.Kosmiczna.przygoda.2005.PLDUB.HDTV.720p.x264-LTN.part06.rar
http://www.uploadstation.com/file/3E5pJu4/Zathura.Kosmiczna.przygoda.2005.PLDUB.HDTV.720p.x264-LTN.part07.rar
http://www.uploadstation.com/file/D3ATJvm/Zathura.Kosmiczna.przygoda.2005.PLDUB.HDTV.720p.x264-LTN.part08.rar
http://www.uploadstation.com/file/TE4aKKm/Zathura.Kosmiczna.przygoda.2005.PLDUB.HDTV.720p.x264-LTN.part09.rar
http://www.uploadstation.com/file/kqYw6JY/Zathura.Kosmiczna.przygoda.2005.PLDUB.HDTV.720p.x264-LTN.part10.rar
Moje Uploady:
KLIK!

Informacje

Jeżeli chcesz skomentować artykuł musisz być zarejestrowany na stronie.