EXSite.pl - Portal ze wszystkim Mamy tutaj wszystko

NIE MASZ JESZCZE KONTA? ZAREJESTRUJ SIĘ ZA DARMO!   
Przypomnij hasło X

Spirit - Duch Miasta / The Spirit (2008) PL.720p.BluRay.x264.Crash / POLSKI LEKTOR +mHD

Dodał: CrashRed 10 Grudzień 2011 16:08


Spirit - Duch Miasta / The Spirit (2008) PL.720p.BluRay.x264.Crash / POLSKI LEKTOR

Spirit - Duch Miasta / The Spirit (2008) PL.720p.BluRay.x264.Crash / POLSKI LEKTOR +mHD

Spirit - Duch Miasta / The Spirit (2008) PL.720p.BluRay.x264.Crash / POLSKI LEKTOR +mHD
http://www.filmweb.pl/film/Spirit+-+Duch+Miasta-2008-433433

czas trwania: 1 godz. 43 min.
gatunek: Fantasy, Akcja
premiera: 9 stycznia 2009 (Polska) 2009-01-09 25 grudnia 2008 (świat) 2008-12-25
reżyseria: Frank Miller
scenariusz: Frank Miller

Pewnej księżycowej nocy w Central City, policjant Denny Colt (Gabriel Macht), rusza na kolejną misję. Trop wiedzie go na błotniste nabrzeże, wprost do starego zatopionego statku i na spotkanie z najgroźniejszym przestępcą w mieście – Octopusem (Samuel L. Jackson). Ich widowiskowy pojedynek wykorzystuje wspólniczka Octopusa, Silken Floss (Scarlett Johansson), która kradnie jeden z dwóch tajemniczych skarbów wyłowionych z dna morza. Gdy milkną odgłosy wystrzałów, okazuje się, że w walce zginął
jeden z policjantów, drugi jest w stanie krytycznym. Denny’emu, który został postrzelony i poraniony nożem tyle razy, że starczyłoby na kilka zgonów, udaje się uniknąć śmierci. Gdy z pomocą przychodzi jego ukochana, doktor Ellen Dolan (Sarah Paulson), policjant zdaje sobie sprawę, że rany zagoją się nad podziw łatwo i szybko. Nie wie tylko, dlaczego tak się dzieje. Jako Spirit powraca do miasta, które zyska od teraz wyjątkowego obro?cę. Dopóki Octopus jest na wolności, nikt w Central City nie może czuć się bezpieczny. Okazuje się jednak, że nie tylko Octopus był świadkiem pogromu policjantów tamtej nocy. Była tam również Sand Saref (Eva Mendes), słynna międzynarodowa złodziejka biżuterii. Jej imię powoduje, że serce Spirita uderza szybciej. Dawno temu, kiedy Denny Colt i Sand Saref byli jeszcze dzieciakami z sąsiedztwa, rozegrała się tragedia, która zmieniła w koszmar ich życie i rozdzieliła na lata. Sand wyjechała i miała już nigdy nie wrócić do Central City. Czy ta kobieta, pierwsza miłość Spirita, mogła zmienić się w osobę, która nie cofnie się przed niczym? Spirit, wobec dręczących go wątpliwości, coraz intensywniej poszukuje swej utraconej przed laty ukochanej. W międzyczasie Octopus, Silken oraz gromada ich sklonowanych pomocników (Louis Lombardi) również zaczynają szukać złodziejki. Wiedzą bowiem, że Sand jest w posiadaniu drugiego skarbu wyłowionego z głębin pamiętnej nocy i chcą się z nią wymienić. Gdy wreszcie dochodzi do wymiany skarbów, Octopus jest w stanie zrealizować plan, po którym będzie niepodzielnie rządził całym Central City. I tylko Spirit może mu w tym przeszkodzić. Lecz Octopus wie na temat nowego bohatera Central City więcej niż on sam. Zna przyczyny jego nieśmiertelności i wie, jak z nią walczyć.


Spirit - Duch Miasta / The Spirit (2008) PL.720p.BluRay.x264.Crash / POLSKI LEKTOR +mHD
Spirit - Duch Miasta / The Spirit (2008) PL.720p.BluRay.x264.Crash / POLSKI LEKTOR +mHD

Format : Matroska
File size : 3.59 GiB
Duration : 1h 42mn
Overall bit rate : 5 011 Kbps
Format/Info : Advanced Video Codec
Format profile : High@L4.1
Duration : 1h 42mn
Bit rate : 4 561 Kbps
Width : 1 280 pixels
Height : 536 pixels
Display aspect ratio : 2.35:1
Frame rate : 23.976 fps
Stream size : 3.20 GiB (89%)
Writing library : x264 core 67 r1130 8475977
Language : English
Audio
Format : AC-3
Duration : 1h 42mn
Bit rate mode : Constant
Bit rate : 448 Kbps
Channel(s) : 6 channels
Stream size : 329 MiB (9%)
Title : Crash-Polski



Spirit - Duch Miasta / The Spirit (2008) PL.720p.BluRay.x264.Crash / POLSKI LEKTOR +mHD
Uwaga! Linki nie zakodowane tylko dla zarejestrowanych użytkowników!

Nie masz konta? Zarejestruj się za darmo!
----------------
Links are not encoded only for registered users only! Plese login or register!






Spirit - Duch Miasta / The Spirit (2008) PL.m720p.BluRay.AC3.x264-Crash / POLSKI LEKTOR

Format : Matroska
File size : 2.38 GiB
Duration : 1h 42mn
Overall bit rate : 3 321 Kbps
Format/Info : Advanced Video Codec
Format profile : High@L4.1
Duration : 1h 42mn
Bit rate : 2 872 Kbps
Width : 1 280 pixels
Height : 544 pixels
Display aspect ratio : 2.35:1
Frame rate : 23.976 fps
Stream size : 2.01 GiB (85%)
Title : Crash
Writing library : x264 core 114 r1924 08d04a4
Language : English
Audio
Format : AC-3
Duration : 1h 42mn
Bit rate mode : Constant
Bit rate : 448 Kbps
Channel(s) : 6 channels
Stream size : 329 MiB (13%)
Title : Crash-Polski


Uwaga! Linki nie zakodowane tylko dla zarejestrowanych użytkowników!

Nie masz konta? Zarejestruj się za darmo!
----------------
Links are not encoded only for registered users only! Plese login or register!





Użytkownik VIP

CrashRedVIP

#1 | Dodany: 27 Listopad 2011 16:13

ok

Informacje

Jeżeli chcesz skomentować artykuł musisz być zarejestrowany na stronie.