EXSite.pl - Portal ze wszystkim Mamy tutaj wszystko

NIE MASZ JESZCZE KONTA? ZAREJESTRUJ SIĘ ZA DARMO!   
Przypomnij hasło X

Osaczony / Hostage (2005) PL.BluRay.720p.x264.AC3-Crash / POLSKI LEKTOR

Dodał: CrashRed 27 Listopad 2011 18:32


Osaczony / Hostage (2005) PL.BluRay.720p.x264.AC3-Crash / POLSKI LEKTOR

Osaczony / Hostage (2005) PL.BluRay.720p.x264.AC3-Crash / POLSKI LEKTOR

Osaczony / Hostage (2005) PL.BluRay.720p.x264.AC3-Crash / POLSKI LEKTOR
http://www.filmweb.pl/Osaczony

czas trwania: 1 godz. 53 min.
gatunek: Thriller
Niemcy, USA
premiera: 16 września 2005 (Polska) 2005-09-16 9 marca 2005 (świat) 2005-03-09
reżyseria: Florent Emilio Siri
scenariusz: Doug Richardson

Po przeżyciu osobistej tragedii, policyjny negocjator Jeff Talley (Bruce Willis) rezygnuje z pracy w Los Angeles i przyjmuje posadę szefa policji w sennym miasteczku Bristo Camino w hrabstwie Ventura. Jednak w pewien poniedziałkowy poranek jego spokojna egzystencja zostaje nagle zakłócona i wszystko wskazuje na to, że życie Talleya - tak zawodowe, jak i osobiste - zmieni się bezpowrotnie. Trójka nastolatków włamuje się na teren prywatnej posesji, skąd zamierza ukraść samochód. Na miejscu czeka
ich jednak nieprzyjemna niespodzianka. Warta wiele milionów dolarów posiadłość okazuje się prawdziwą twierdzą. Gdy złodzieje orientują się, że nie mają żadnych szans na ucieczkę, wpadają w panikę i biorą zakładników, stawiając Talleya w sytuacji, której tak bardzo pragnął uniknąć. Policjant zmuszony jest ponownie odegrać rolę negocjatora, aby ocalić uwięzioną rodzinę. Ale to, z czym ma do czynienia, jest o wiele groźniejsze, niż przypuszczał...


Format : Matroska
File size : 3.60 GiB
Duration : 1h 53mn
Overall bit rate : 4 542 Kbps
Format/Info : Advanced Video Codec
Format profile : High@L4.1
Duration : 1h 53mn
Bit rate : 3 452 Kbps
Width : 1 280 pixels
Height : 544 pixels
Display aspect ratio : 2.35:1
Frame rate : 23.976 fps
Stream size : 2.66 GiB (74%)
Title : x264 Video Stream
Writing library : x264 core 116 r2037 f8ebd4a
Audio #1
Format : AC-3
Duration : 1h 53mn
Bit rate mode : Constant
Bit rate : 640 Kbps
Channel(s) : 6 channels
Stream size : 519 MiB (14%)
Title : English DD 5.1
Language : English
Audio #2
Format : AC-3
Duration : 1h 53mn
Bit rate mode : Constant
Bit rate : 448 Kbps
Channel(s) : 6 channels
Stream size : 363 MiB (10%)
Title : Destiny-Polski



Osaczony / Hostage (2005) PL.BluRay.720p.x264.AC3-Crash / POLSKI LEKTOR
Uwaga! Linki nie zakodowane tylko dla zarejestrowanych użytkowników!

Nie masz konta? Zarejestruj się za darmo!
----------------
Links are not encoded only for registered users only! Plese login or register!



Użytkownik VIP

CrashRedVIP

#1 | Dodany: 27 Listopad 2011 18:32

ok

Informacje

Jeżeli chcesz skomentować artykuł musisz być zarejestrowany na stronie.