EXSite.pl - Portal ze wszystkim Mamy tutaj wszystko

NIE MASZ JESZCZE KONTA? ZAREJESTRUJ SIĘ ZA DARMO!   
Przypomnij hasło X

Kalifornia (1993) PL.720p.bluray.x264-Crash / POLSKI LEKTOR

Dodał: CrashRed 27 Listopad 2011 18:56


Kalifornia (1993) PL.720p.bluray.x264-Crash / POLSKI LEKTOR

Kalifornia (1993) PL.720p.bluray.x264-Crash / POLSKI LEKTOR

Kalifornia (1993) PL.720p.bluray.x264-Crash / POLSKI LEKTOR
http://www.filmweb.pl/film/Kalifornia-1993-6668

czas trwania: 1 godz. 58 min.
gatunek: Sensacyjny
premiera: 3 września 1993 (świat) 1993-09-03
reżyseria: Dominic Sena
scenariusz: Tim Metcalfe, Stephen Levy

Brian Kessler i Carrie Launghlin postanawiają zebrać materiał do książki o najgorszych mordercach w dziejach Ameryki. Zanim dotrą do Kalifornii, odwiedzą domy najbardziej poszukiwanych morderców i miejsca ich zbrodni. Jedyny problem stanowią pieniądze. Potrzebują więc kogoś, kto wybierze się z nimi, wnosząc swój wkład finansowy. Early, wielokrotny przestepca, ma już dość właściciela przyczepy, w której mieszka i kuratora, usiłującego znaleźć mu zajęcie; przypadkowo natyka się na ogłoszenie, dające mu szansę wymarzonej ucieczki. Razem ruszają w drogę, na przejazdkę, której nigdy nie zapomną


Kalifornia (1993) PL.720p.bluray.x264-Crash / POLSKI LEKTOR
Kalifornia (1993) PL.720p.bluray.x264-Crash / POLSKI LEKTOR

Format : Matroska
File size : 6.71 GiB
Duration : 1h 58mn
Overall bit rate : 8 128 Kbps
Video
Format/Info : Advanced Video Codec
Format profile : High@L4.1
Duration : 1h 58mn
Bit rate : 6 425 Kbps
Width : 1 280 pixels
Height : 544 pixels
Display aspect ratio : 2.35:1
Frame rate : 23.976 fps
Stream size : 5.17 GiB (77%)
Writing library : x264 core 98 r1649 c54c47d
Language : English
Audio #1
Format : DTS
Duration : 1h 58mn
Bit rate mode : Constant
Bit rate : 1 510 Kbps
Channel(s) : 6 channels
Stream size : 1.25 GiB (19%)
Language : English
Audio #2
Format : AC-3
Codec ID : A_AC3
Duration : 1h 58mn
Bit rate mode : Constant
Bit rate : 192 Kbps
Channel(s) : 2 channels
Stream size : 162 MiB (2%)
Title : Crash-Polski



Kalifornia (1993) PL.720p.bluray.x264-Crash / POLSKI LEKTOR
Uwaga! Linki nie zakodowane tylko dla zarejestrowanych użytkowników!

Nie masz konta? Zarejestruj się za darmo!
----------------
Links are not encoded only for registered users only! Plese login or register!



Użytkownik VIP

CrashRedVIP

#1 | Dodany: 27 Listopad 2011 18:56

ok
Użytkownik VIP

dyskoteka1987Trial Uploader

#2 | Dodany: 28 Listopad 2011 09:31

thx

Informacje

Jeżeli chcesz skomentować artykuł musisz być zarejestrowany na stronie.