EXSite.pl - Portal ze wszystkim Mamy tutaj wszystko

NIE MASZ JESZCZE KONTA? ZAREJESTRUJ SIĘ ZA DARMO!   
Przypomnij hasło X

Beowulf (2007) DirCut.PL.720p.HDDVD.x264-Crash / POLSKI LEKTOR

Dodał: CrashRed 3 Grudzień 2011 17:46


Beowulf (2007) DirCut.PL.720p.HDDVD.x264-Crash / POLSKI LEKTOR

Beowulf (2007) DirCut.PL.720p.HDDVD.x264-Crash / POLSKI LEKTOR

Beowulf (2007) DirCut.PL.720p.HDDVD.x264-Crash / POLSKI LEKTOR
http://www.filmweb.pl/Beowulf

czas trwania: 1 godz. 53 min.
gatunek: Animacja, Fantasy, Przygodowy
premiera: 23 listopada 2007 (Polska) 2007-11-23 5 listopada 2007 (świat) 2007-11-05
reżyseria: Robert Zemeckis
scenariusz: Roger Avary, Neil Gaiman

W czasach wielkich bohaterów żyje najmężniejszy z nich – Beowulf. Pokonawszy potężnego potwora o imieniu Grendel, Beowulf ściąga na siebie niegasnący gniew jego uwodzicielskiej, a zarazem bezwzględnej matki, która zrobi wszystko, co w jej mocy, aby pomścić syna. Epicka w swoim rozmachu walka, do jakiej doszło, wspominana była później przez wieki, a imię Beowulf zapisało się na zawsze w ludzkiej pamięci. Nagrodzony Oscarem reżyser Robert Zemeckis opowiada ten najstarszy epos w historii języka
angielskiego z wykorzystaniem najnowszej technologii, przyczyniając się do rozwoju kina dzięki magii cyfrowo wzbogaconej akcji. Beowulf to film niepodobny do żadnego innego tytułu, jaki wszedł na ekrany kin w tym roku. Jest on efektem dziesięcioletnich stara? bestsellerowego pisarza dziennika „New York Times” Neila Gaimana (graficzne powieści Lustrzana maska i Sandman) oraz nagrodzonego Oscarem scenarzysty Rogera Avary’ego (Pulp Fiction), którzy zaadaptowali tę legendę na potrzeby srebrnego ekranu. Dzięki zastosowaniu technologii Real D, Dolby Digital 3D oraz IMAX 3D Beowulf zapewnia niezrównane, porywające doznania, które przenoszą widzów do czasów wielkich bohaterów. Gwiazdorskiej obsadzie filmu przewodzi Ray Winstone (Infiltracja, Sexy Beast), którego zobaczymy w roli tytułowej. Towarzyszą mu: laureat Oscara Anthony Hopkins, który wcielił się w postać przeklętego króla Hrothgara, a także John Malkovich, Robin Wright Penn, Brendan Gleeson, Crispin Glover, Alison Lohman oraz nagrodzona Oscarem Angelina Jolie w roli matki Grendela. Warner Bros. Pictures, we współpracy z Shangri-La Entertainment, prezentuje produkcję ImageMovers pod tytułem Beowulf, w której występują: Ray Winstone, Anthony Hopkins, John Malkovich, Robin Wright Penn, Brendan Gleeson, Crispin Glover, Alison Lohman i Angelina Jolie. Film w reżyserii Roberta Zemeckisa powstał na podstawie scenariusza Neila Gaimana i Rogera Avary’ego. Produkcją zajmują się Steve Starkey, Robert Zemeckis i Jack Rapke. Producentami wykonawczymi są Martin Shafer, Roger Avary i Neil Gaiman, a funkcję współproducenta pełni Steven Boyd. Reżyserem obrazu jest Robert Presley. Za scenografię odpowiada Doug Chiang. Autorem montażu jest Jeremiah O’Driscoll. Kostiumy zaprojektowała Gabriella Pescucci. Pierwszym kierownikiem ds. efektów wizualnych jest Jerome Chen. Muzykę skomponował Alan Silvestri. Autorami piosenek do filmu są Glen Ballard i Alan Silvestri


Beowulf (2007) DirCut.PL.720p.HDDVD.x264-Crash / POLSKI LEKTOR
Beowulf (2007) DirCut.PL.720p.HDDVD.x264-Crash / POLSKI LEKTOR

Format : Matroska
File size : 3.67 GiB
Duration : 1h 54mn
Overall bit rate : 4 584 Kbps
Video
ID : 1
Format : AVC
Format/Info : Advanced Video Codec
Format profile : High@L5.1
Duration : 1h 54mn
Bit rate : 3 940 Kbps
Width : 1 280 pixels
Height : 544 pixels
Display aspect ratio : 2.35:1
Frame rate : 23.976 fps
Stream size : 3.09 GiB (84%)
Title : Beowulf
Writing library : x264 core 58 svn-736M
Language : English
Audio
ID : 2
Format : AC-3
Duration : 1h 54mn
Bit rate mode : Constant
Bit rate : 640 Kbps
Channel(s) : 6 channels
Stream size : 525 MiB (14%)
Title : Crash-Polski



Beowulf (2007) DirCut.PL.720p.HDDVD.x264-Crash / POLSKI LEKTOR
Uwaga! Linki nie zakodowane tylko dla zarejestrowanych użytkowników!

Nie masz konta? Zarejestruj się za darmo!
----------------
Links are not encoded only for registered users only! Plese login or register!



Użytkownik VIP

CrashRedVIP

#1 | Dodany: 3 Grudzień 2011 17:46

ok
Użytkownik VIP

maaaniek2VIP

#2 | Dodany: 3 Grudzień 2011 21:14

Beowulf (2007) DirCut.m720p.AC3.DualAudio.x264-maaaniek

audio: polski / angielski
napisy: polski / angielski

DANE TECHNICZNE:



Archiwum RAR w partach po ~ 1gb, linki zamienne = szybkie pobieranie również dla osób bez premium!

Archiwum testowane przed uploadem

Dodane dane naprawcze

Linki zamienne



DOWNLOAD:

Uwaga! Linki nie zakodowane tylko dla zarejestrowanych użytkowników!

Nie masz konta? Zarejestruj się za darmo!
----------------
Links are not encoded only for registered users only! Plese login or register!



HASŁO:

brak

Informacje

Jeżeli chcesz skomentować artykuł musisz być zarejestrowany na stronie.