EXSite.pl - Portal ze wszystkim Mamy tutaj wszystko

NIE MASZ JESZCZE KONTA? ZAREJESTRUJ SIĘ ZA DARMO!   
Przypomnij hasło X

Angielska robota / The Bank Job (2008) m720p.AC3.PL.x264-maaaniek

Dodał: maaaniek2 3 Grudzień 2011 18:18


Angielska robota / The Bank Job (2008) m720p.AC3.PL.x264-maaaniek

audio: polski lektor Angielska robota / The Bank Job (2008) m720p.AC3.PL.x264-maaaniek
Angielska robota / The Bank Job (2008) m720p.AC3.PL.x264-maaaniek

Angielska robota / The Bank Job (2008) m720p.AC3.PL.x264-maaaniek
O FILMIE:

czas trwania: 1 godz. 50 min.
gatunek: Kryminał, Sensacyjny
premiera: 25 lipca 2008 (Polska) 19 lutego 2008 (świat)
reżyseria: Roger Donaldson
scenariusz: Dick Clement, Ian La Frenais


Opowieść o legendarnym już napadzie na bank na londy?skiej Baker Street w 1971 roku. Legendarnym, bo aż do dziś ani nikogo w tej sprawie nie aresztowano, ani nie odzyskano nawet pensa ze skradzionych przez rabusiów pieniędzy. Dodatkowo, przez niemal 35 lat, brytyjski rząd zakazał jakichkolwiek informacji na ten temat.

Angielska robota / The Bank Job (2008) m720p.AC3.PL.x264-maaaniek


Angielska robota / The Bank Job (2008) m720p.AC3.PL.x264-maaaniek

http://www.filmweb.pl/film/Angielska+robota-2008-402798

Angielska robota / The Bank Job (2008) m720p.AC3.PL.x264-maaaniek
DANE TECHNICZNE:


Angielska robota / The Bank Job (2008) m720p.AC3.PL.x264-maaaniek

Angielska robota / The Bank Job (2008) m720p.AC3.PL.x264-maaaniek
Archiwum RAR w partach po ~ 1gb

Archiwum testowane przed uploadem

Dodane dane naprawcze

Linki zamienne


Angielska robota / The Bank Job (2008) m720p.AC3.PL.x264-maaaniek
DOWNLOAD:

Uwaga! Linki nie zakodowane tylko dla zarejestrowanych użytkowników!

Nie masz konta? Zarejestruj się za darmo!
----------------
Links are not encoded only for registered users only! Plese login or register!


Angielska robota / The Bank Job (2008) m720p.AC3.PL.x264-maaaniek
HASŁO:

bez hasła



Martwe linki? Potrzebny reupload? Wejdź tutaj i napisz wiadomość

Zobacz koniecznie moje newsy na EXSite.pl z filmami w HD m720p!

Użytkownik VIP

CrashRedVIP

#1 | Dodany: 10 Grudzień 2011 16:44

[size=2]Angielska robota / The Bank Job (2008) PL.1080p.BluRay.x264-Crash / POLSKI LEKTOR[/size]


Format : Matroska
File size : 7.07 GiB
Duration : 1h 52mn
Overall bit rate : 9 033 Kbps
Video
Format/Info : Advanced Video Codec
Format profile : High@L5.1
Duration : 1h 52mn
Bit rate : 8 580 Kbps
Width : 1 920 pixels
Height : 816 pixels
Display aspect ratio : 2.35:1
Frame rate : 23.976 fps
Stream size : 6.58 GiB (93%)
Writing library : x264 core 60 r877M c74a8e2
Language : English
Audio
Format : AC-3
Duration : 1h 52mn
Bit rate mode : Constant
Bit rate : 448 Kbps
Channel(s) : 6 channels
Stream size : 359 MiB (5%)
Title : Crash-Polski


Uwaga! Linki nie zakodowane tylko dla zarejestrowanych użytkowników!

Nie masz konta? Zarejestruj się za darmo!
----------------
Links are not encoded only for registered users only! Plese login or register!


Informacje

Jeżeli chcesz skomentować artykuł musisz być zarejestrowany na stronie.