EXSite.pl - Portal ze wszystkim Mamy tutaj wszystko

NIE MASZ JESZCZE KONTA? ZAREJESTRUJ SIĘ ZA DARMO!   
Przypomnij hasło X

Dungeon Siege: W imię króla / In the Name of the King: A Dungeon Siege Tale (2007) PL.720p.BluRay.DTS.x264-Crash / POLSKI LEKTOR +mHD

Dodał: CrashRed 11 Grudzień 2011 20:06


Dungeon Siege: W imię króla / In the Name of the King: A Dungeon Siege Tale (2007) PL.720p.BluRay.DTS.x264-Crash / POLSKI LEKTOR

Dungeon Siege: W imię króla / In the Name of the King: A Dungeon Siege Tale (2007) PL.720p.BluRay.DTS.x264-Crash / POLSKI LEKTOR +mHD

Dungeon Siege: W imię króla / In the Name of the King: A Dungeon Siege Tale (2007) PL.720p.BluRay.DTS.x264-Crash / POLSKI LEKTOR +mHD
http://www.filmweb.pl/film/Dungeon+Siege+W+imi%C4%99+kr%C3%B3la-2007-219556

czas trwania: 2 godz. 7 min.
gatunek: Fantasy, Przygodowy
Niemcy, USA, Kanada
premiera: 3 listopada 2006 (świat) 2006-11-03
reżyseria: Uwe Boll
scenariusz: Glenn M. Benest, David Freeman

Królestwo Ebb zostaje zaatakowane przez hordy okrutnych Krogów. Na czele potworów staje potężny mag Gallian (Ray Liotta). Tymczasem gdzieś na obrzeżach królestwa w okolicach miasta Stonebridge wiedzie spokojny żywot człowiek nazywany przez wszystkich Farmerem (Jason Statham). Pewnego dnia miasto zostaje zaatakowane przez Krogi. Syn Farmera zostaje zabity, a żona uprowadzona. Farmer wyrusza więc na ratunek wraz z przyjacielem Norickiem i bratem żony. Nim uratuje żonę będzie zmuszony stanąć przeciwko armii Galliana. Ekranizacja znanej gry komputerowej.


Format : Matroska
File size : 6.93 GiB
Duration : 2h 7mn
Overall bit rate : 7 803 Kbps
Format/Info : Advanced Video Codec
Format profile : High@L4.1
Duration : 2h 7mn
Bit rate : 5 840 Kbps
Width : 1 280 pixels
Height : 546 pixels
Display aspect ratio : 2.35:1
Frame rate : 23.976 fps
Stream size : 5.05 GiB (73%)
Title : In the Name of the King: A Dungeon Siege Tale (2007)
Writing library : x264 core 60 r886M 1075536
Language : English
Audio #1
Format : DTS
Duration : 2h 7mn
Bit rate mode : Constant
Bit rate : 1 510 Kbps
Channel(s) : 6 channels
Stream size : 1.34 GiB (19%)
Title : DTS 5.1 1536kbps
Language : English
Audio #2
Format : AC-3
Duration : 2h 7mn
Bit rate mode : Constant
Bit rate : 448 Kbps
Channel(s) : 6 channels
Stream size : 407 MiB (6%)
Title : Crash-Polski



Dungeon Siege: W imię króla / In the Name of the King: A Dungeon Siege Tale (2007) PL.720p.BluRay.DTS.x264-Crash / POLSKI LEKTOR +mHD
Uwaga! Linki nie zakodowane tylko dla zarejestrowanych użytkowników!

Nie masz konta? Zarejestruj się za darmo!
----------------
Links are not encoded only for registered users only! Plese login or register!





Dungeon Siege: W imię króla / In the Name of the King: A Dungeon Siege Tale (2007) PL.m720p.BluRay.x264-Crash / POLSKI LEKTOR

Format : Matroska
File size : 3.06 GiB
Duration : 2h 7mn
Overall bit rate : 3 447 Kbps
Format/Info : Advanced Video Codec
Format profile : High@L4.1
Duration : 2h 7mn
Bit rate : 3 000 Kbps
Width : 1 280 pixels
Height : 544 pixels
Display aspect ratio : 2.35:1
Frame rate : 23.976 fps
Stream size : 2.60 GiB (85%)
Writing library : x264 core 112 r1867 22bfd31
Language : English
Audio
Format : AC-3
Duration : 2h 7mn
Bit rate mode : Constant
Bit rate : 448 Kbps
Channel(s) : 6 channels
Stream size : 407 MiB (13%)
Title : Crash-Polski

Uwaga! Linki nie zakodowane tylko dla zarejestrowanych użytkowników!

Nie masz konta? Zarejestruj się za darmo!
----------------
Links are not encoded only for registered users only! Plese login or register!


Użytkownik VIP

CrashRedVIP

#1 | Dodany: 3 Grudzień 2011 20:13

Dungeon Siege: W imię króla / In the Name of the King: A Dungeon Siege Tale (2007) PL.1080p.BluRay.x264-Crash / POLSKI LEKTOR

Format : Matroska
File size : 11.0 GiB
Duration : 2h 7mn
Overall bit rate : 12.4 Mbps
Format/Info : Advanced Video Codec
Format profile : High@L4.1
Duration : 2h 7mn
Bit rate : 12.0 Mbps
Width : 1 920 pixels
Height : 1 080 pixels
Display aspect ratio : 16:9
Frame rate : 23.976 fps
Stream size : 10.4 GiB (94%)
Title : Crash
Writing library : x264 core 92 r1510 33d382a
Format : AC-3
Duration : 2h 7mn
Bit rate mode : Constant
Bit rate : 448 Kbps
Channel(s) : 6 channels
Stream size : 407 MiB (4%)




Dungeon Siege: W imię króla / In the Name of the King: A Dungeon Siege Tale (2007) PL.1080p.BluRay.x264-Crash / POLSKI LEKTOR

Uwaga! Linki nie zakodowane tylko dla zarejestrowanych użytkowników!

Nie masz konta? Zarejestruj się za darmo!
----------------
Links are not encoded only for registered users only! Plese login or register!
Użytkownik VIP

PHONICUżytkownik

#2 | Dodany: 6 Grudzień 2011 23:02

ok thx
Użytkownik VIP

JanosikHarnasUżytkownik

#3 | Dodany: 16 Grudzień 2011 11:31

ok thx
Użytkownik VIP

swiezy875Użytkownik

#4 | Dodany: 14 Lipiec 2013 13:31

W imię króla / In the Name of the King: A Dungeon Siege Tale (2007)

Plik : 700 MB
Video : 669 Kbps, 25 fps, rozdz.720x400
Audio : 128 Kbps, 48000 Hz, 2 kanały
Lektor pl

http://catshare.net/VR31rWXqgnTaRvAb/W imie krola.rar

http://egofiles.com/tsNhgtGdBIxngo1I/W_imie_krola.rar
Sprawdzony upload. Testowan arhiwa. 10% danych naprawczych.
Wrzucam filmy, ktore sam obejrzalem i moim zdaniem sa godne uwagi. Nie sugeruje sie ocena filmwebow i innych takich.

Informacje

Jeżeli chcesz skomentować artykuł musisz być zarejestrowany na stronie.