EXSite.pl - Portal ze wszystkim Mamy tutaj wszystko

NIE MASZ JESZCZE KONTA? ZAREJESTRUJ SIĘ ZA DARMO!   
Przypomnij hasło X

Zabójca / War (2007) PL.BluRay.1080p.x264.Crash / POLSKI LEKTOR

Dodał: CrashRed 4 Grudzień 2011 17:34


Zabójca / War (2007) PL.BluRay.1080p.x264.Crash / POLSKI LEKTOR

Zabójca / War (2007) PL.BluRay.1080p.x264.Crash / POLSKI LEKTOR

Zabójca / War (2007) PL.BluRay.1080p.x264.Crash / POLSKI LEKTOR
http://www.filmweb.pl/film/Zab%C3%B3jca-2007-317857

czas trwania: 1 godz. 43 min.
gatunek: Sensacyjny
premiera: 24 sierpnia 2007 (świat) 2007-08-24
reżyseria: Philip G. Atwell
scenariusz: Lee Anthony Smith, Gregory J. Bradley

Film opowiada o tajemniczym, niesławnym zabójcy znanym jako Rogue (Jet Li), który niedawno wywołał krwawą wojnę między dwoma rywalizującymi azjatyckimi mafiami. Agent FBI Jack Crawford (Jason Statham), którego partner został zamordowany przez Rogue, rozpoczyna śmiertelną grę z mordercą.


Zabójca / War (2007) PL.BluRay.1080p.x264.Crash / POLSKI LEKTOR
Zabójca / War (2007) PL.BluRay.1080p.x264.Crash / POLSKI LEKTOR

Format : Matroska
File size : 8.06 GiB
Duration : 1h 43mn
Overall bit rate : 11.2 Mbps
Video
Format/Info : Advanced Video Codec
Format profile : High@L4.1
Duration : 1h 43mn
Bit rate : 10.6 Mbps
Width : 1 920 pixels
Height : 800 pixels
Display aspect ratio : 2.40:1
Frame rate : 23.976 fps
Stream size : 7.44 GiB (92%)
Title : Crash
Writing library : x264 core 58 svn-736M
Language : English
Audio
Format : AC-3
Duration : 1h 43mn
Bit rate mode : Constant
Bit rate : 640 Kbps
Channel(s) : 6 channels
Stream size : 472 MiB (6%)
Title : Crash-Polski



Zabójca / War (2007) PL.BluRay.1080p.x264.Crash / POLSKI LEKTOR
Uwaga! Linki nie zakodowane tylko dla zarejestrowanych użytkowników!

Nie masz konta? Zarejestruj się za darmo!
----------------
Links are not encoded only for registered users only! Plese login or register!



Użytkownik VIP

CrashRedVIP

#1 | Dodany: 4 Grudzień 2011 17:35


Format : Matroska
File size : 4.37 GiB
Duration : 1h 43mn
Overall bit rate : 6 079 Kbps
Video
Format/Info : Advanced Video Codec
Format profile : High@L5.1
Duration : 1h 43mn
Bit rate : 5 436 Kbps
Width : 1 280 pixels
Height : 528 pixels
Display aspect ratio : 2.40:1
Frame rate : 23.976 fps
Stream size : 3.83 GiB (87%)
Writing library : x264 core 57 svn-709C
Language : English
Audio
Format : AC-3
Duration : 1h 43mn
Bit rate mode : Constant
Bit rate : 640 Kbps
Channel(s) : 6 channels
Stream size : 472 MiB (11%)
Title : Crash-Polski



Zabójca / War (2007) PL.720p.Bluray.x264-Crash / POLSKI LEKTOR

Uwaga! Linki nie zakodowane tylko dla zarejestrowanych użytkowników!

Nie masz konta? Zarejestruj się za darmo!
----------------
Links are not encoded only for registered users only! Plese login or register!

Informacje

Jeżeli chcesz skomentować artykuł musisz być zarejestrowany na stronie.