EXSite.pl - Portal ze wszystkim Mamy tutaj wszystko

NIE MASZ JESZCZE KONTA? ZAREJESTRUJ SIĘ ZA DARMO!   
Przypomnij hasło X

Komórka / Cellular (2004) PL.720p.BluRay.x264-Crash / POLSKI LEKTOR +mHD

Dodał: CrashRed 17 Grudzień 2011 20:02


Komórka / Cellular (2004) PL.720p.BluRay.x264-Crash / POLSKI LEKTOR

Komórka / Cellular (2004) PL.720p.BluRay.x264-Crash / POLSKI LEKTOR  +mHD

Komórka / Cellular (2004) PL.720p.BluRay.x264-Crash / POLSKI LEKTOR  +mHD
http://www.filmweb.pl/Komorka

czas trwania: 1 godz. 34 min.
gatunek: Sensacyjny, Akcja
premiera: 10 grudnia 2004 (Polska) 2004-12-10 10 września 2004 (świat) 2004-09-10
reżyseria: David R. Ellis
scenariusz: J. Mackye Gruber, Eric Bress

Jednodniowy dramat pewnej rodziny i młodego mężczyzny, który odbierając swój telefon został wciągnięty w wir wydarze? nie mających z nim nic wspólnego. Teraz nie zawaha się przed niczym starając się pomoc nieznanej kobiecie, z która rozmawia przez telefon.


Format : Matroska
File size : 3.54 GiB
Duration : 1h 33mn
Overall bit rate : 5 398 Kbps
Video
Format/Info : Advanced Video Codec
Format profile : High@L4.1
Duration : 1h 33mn
Bit rate : 5 140 Kbps
Width : 1 280 pixels
Height : 720 pixels
Display aspect ratio : 16:9
Frame rate : 23.976 fps
Stream size : 3.31 GiB (93%)
Title : Cellular (2004)
Writing library : x264 core 67 r1145M d2e1e1c
Language : English
Audio
Format : AC-3
Duration : 1h 33mn
Bit rate mode : Constant
Bit rate : 256 Kbps
Channel(s) : 2 channels
Compression mode : Lossy
Stream size : 172 MiB (5%)
Title : Crash-Polski



Komórka / Cellular (2004) PL.720p.BluRay.x264-Crash / POLSKI LEKTOR  +mHD
Uwaga! Linki nie zakodowane tylko dla zarejestrowanych użytkowników!

Nie masz konta? Zarejestruj się za darmo!
----------------
Links are not encoded only for registered users only! Plese login or register!





Komórka / Cellular (2004) PL.m-720p.BluRay.AAC.x264-Crash / POLSKI LEKTOR

Format : Matroska
File size : 2.14 GiB
Duration : 1h 33mn
Overall bit rate : 3 258 Kbps
Movie name : Cellular.2004.m-720p.BDRip.AAC.x264-m4c14k
Video
Format/Info : Advanced Video Codec
Format profile : High@L4.1
Duration : 1h 33mn
Bit rate : 3 000 Kbps
Width : 1 280 pixels
Height : 720 pixels
Display aspect ratio : 16:9
Frame rate : 23.976 fps
Stream size : 1.93 GiB (90%)
Title : m-720p.BDRip.x264-m4c14k
Writing library : x264 core 115 r1995 c1e60b9
Audio
Format : AC-3
Duration : 1h 33mn
Bit rate mode : Constant
Bit rate : 256 Kbps
Channel(s) : 2 channels
Stream size : 172 MiB (8%)
Title : Crash-Polski


Uwaga! Linki nie zakodowane tylko dla zarejestrowanych użytkowników!

Nie masz konta? Zarejestruj się za darmo!
----------------
Links are not encoded only for registered users only! Plese login or register!



Użytkownik VIP

CrashRedVIP

#1 | Dodany: 4 Grudzień 2011 18:01

Komórka / Cellular (2004) PL.DUAL.1080p.BluRay.x264-PELE144 POLSKI LEKTOR

| SOURCE.........: 1080p.BluRay.x264-Japhson |
| RELEASE SiZE...: 8.22 GB |
| |
| ViDEO CODEC....: x264 |
| ViDEO BiTRATE..: 10.6 Mbps |
| RESOLUTiON.....: 1920 x 1080 |
| FRAME RATE.....: 23.976 fps |
| |
| AUDiO 1........: English DTS 5.1 1510 kbps |
| AUDiO 2........: Polish AC3 5.1 448 kbps |
| |
| SUBTITLES......: Czech, English, Polish |
| |
| SAMPLE.........: included



Komórka / Cellular (2004) PL.DUAL.1080p.BluRay.x264-PELE144 POLSKI LEKTOR

Uwaga! Linki nie zakodowane tylko dla zarejestrowanych użytkowników!

Nie masz konta? Zarejestruj się za darmo!
----------------
Links are not encoded only for registered users only! Plese login or register!
Użytkownik VIP

Adi-83Użytkownik

#2 | Dodany: 18 Grudzień 2011 00:47

thx
"Dopoki nie skorzystalem z Internetu, nie wiedzialem, ze na świecie jest tylu idiotow"
Użytkownik VIP

werix7Użytkownik

#3 | Dodany: 15 Lipiec 2013 18:15

Komórka / Cellular (2004) PL.DVDRip.XviD-inka


DANE TECHNICZNE
Format : AVI at 2.173 Kb/s
Length : 1,37 GB for 1h 30 min. 7s 240ms

Video #0 : MPEG-4 Visual at 1.718 Kb/s
Aspect : 720 x 304 (2.368) at 25.000 fps

Audio #0 : AC-3 at 448 Kb/s
Infos : 6 kanałów, 48,0 KHz

Source V/A: DVDR-DVDSEED / thx !


DOWNLOAD
Uwaga! Linki nie zakodowane tylko dla zarejestrowanych użytkowników!

Nie masz konta? Zarejestruj się za darmo!
----------------
Links are not encoded only for registered users only! Plese login or register!

Informacje

Jeżeli chcesz skomentować artykuł musisz być zarejestrowany na stronie.