EXSite.pl - Portal ze wszystkim Mamy tutaj wszystko

NIE MASZ JESZCZE KONTA? ZAREJESTRUJ SIĘ ZA DARMO!   
Przypomnij hasło X

Teoria chaosu / Chaos (2005) PL.720p.BluRay.x264-Crash / POLSKI LEKTOR +mHD

Dodał: CrashRed 18 Grudzień 2011 16:32


Teoria chaosu / Chaos (2005) PL.720p.BluRay.x264-Crash / POLSKI LEKTOR

Teoria chaosu / Chaos (2005) PL.720p.BluRay.x264-Crash / POLSKI LEKTOR +mHD

Teoria chaosu / Chaos (2005) PL.720p.BluRay.x264-Crash / POLSKI LEKTOR +mHD
http://www.filmweb.pl/Teoria.Chaosu

czas trwania: 1 godz. 38 min.
gatunek: Kryminał, Sensacyjny
premiera: 15 września 2006 (Polska) 2006-09-15 18 stycznia 2006 (świat) 2006-01-18
reżyseria: Tony Giglio
scenariusz: Tony Giglio

Lorenz, złodziej doskonale zorientowany w sposobach pracy policji, dokonuje napadu na bank. Jego śladem podąża dwóch policjantów: świeżo upieczony żółtodziób Dekker i jego doświadczony partner Conners. W akcji bierze również udział kobieta "Teddy" Gallovay oficer policji , która jest związana z jednym z funkcjonariuszy.


Teoria chaosu / Chaos (2005) PL.720p.BluRay.x264-Crash / POLSKI LEKTOR +mHD
Teoria chaosu / Chaos (2005) PL.720p.BluRay.x264-Crash / POLSKI LEKTOR +mHD

Format : Matroska
File size : 5.14 GiB
Duration : 1h 46mn
Overall bit rate : 6 923 Kbps
Video
Format/Info : Advanced Video Codec
Format profile : High@L4.1
Duration : 1h 46mn
Bit rate : 6 480 Kbps
Width : 1 280 pixels
Height : 540 pixels
Display aspect ratio : 2.35:1
Frame rate : 23.976 fps
Stream size : 4.71 GiB (92%)
Title : Chaos 2009 720p x264
Writing library : x264 core 68 r1195M 5d75a9b
Language : English
Audio
Format : AC-3
Duration : 1h 46mn
Bit rate mode : Constant
Bit rate : 448 Kbps
Channel(s) : 6 channels
Stream size : 341 MiB (6%)
Title : Crash-Polski



Teoria chaosu / Chaos (2005) PL.720p.BluRay.x264-Crash / POLSKI LEKTOR +mHD
Uwaga! Linki nie zakodowane tylko dla zarejestrowanych użytkowników!

Nie masz konta? Zarejestruj się za darmo!
----------------
Links are not encoded only for registered users only! Plese login or register!







Teoria chaosu / Chaos (2005) PL.m-720p.BluRay.AAC.x264-Crash / POLSKI LEKTOR

Format : Matroska
File size : 2.33 GiB
Duration : 1h 46mn
Overall bit rate : 3 138 Kbps
Movie name : Chaos.2005.m-720p.BDRip.AAC.x264-m4c14k
Video
Format/Info : Advanced Video Codec
Format profile : High@L4.1
Duration : 1h 46mn
Bit rate : 2 700 Kbps
Width : 1 280 pixels
Height : 540 pixels
Display aspect ratio : 2.35:1
Frame rate : 23.976 fps
Stream size : 1.95 GiB (84%)
Title : m-720p.BDRip.x264-m4c14k
Writing library : x264 core 115 r1995 c1e60b9
Audio
Format : AC-3
Duration : 1h 46mn
Bit rate mode : Constant
Bit rate : 448 Kbps
Channel(s) : 6 channels
Stream size : 341 MiB (14%)
Title : Crash-:Polski

Uwaga! Linki nie zakodowane tylko dla zarejestrowanych użytkowników!

Nie masz konta? Zarejestruj się za darmo!
----------------
Links are not encoded only for registered users only! Plese login or register!




Użytkownik VIP

CrashRedVIP

#1 | Dodany: 4 Grudzień 2011 18:22

ok
Użytkownik VIP

Master07Użytkownik

#2 | Dodany: 16 Grudzień 2011 15:16

Można prosić o reup pierwszego partu? Przy rozpakowywaniu pojawia się błąd.

Informacje

Jeżeli chcesz skomentować artykuł musisz być zarejestrowany na stronie.