EXSite.pl - Portal ze wszystkim Mamy tutaj wszystko

NIE MASZ JESZCZE KONTA? ZAREJESTRUJ SIĘ ZA DARMO!   
Przypomnij hasło X

Patologia / Pathology (2008) PL.1080p.BluRay.DTS.x264-Destiny / POLSKI LEKTOR

Dodał: CrashRed 4 Grudzień 2011 20:03


Patologia / Pathology (2008) PL.1080p.BluRay.DTS.x264-Destiny / POLSKI LEKTOR

Patologia / Pathology (2008) PL.1080p.BluRay.DTS.x264-Destiny / POLSKI LEKTOR

Patologia / Pathology (2008) PL.1080p.BluRay.DTS.x264-Destiny / POLSKI LEKTOR
http://www.filmweb.pl/film/Patologia-2008-411099

czas trwania: 1 godz. 33 min.
gatunek: Thriller
premiera: 11 kwietnia 2008 (świat) 2008-04-11
reżyseria: Marc Sch?lermann
scenariusz: Mark Neveldine, Brian Taylor

Dr Ted Grey zaraz po uko?czeniu studiów medycznych na Harvardzie dostaje się do jednego z najlepszych programów dla patologów. Już na samym początku programu zostaje dostrzeżony przez elitę internistów i zostaje zaproszony do ich grupy, z czym wiążą się specjalne przywileje. Szefem grupy jest dr Jake Gallo, który pokazuje mu zamknięte niegdyś skrzydło szpitala, gdzie on i czwórka jego kolegów odbywa dodatkowe zajęcia - stara się popełnić morderstwo doskonałe - takie, które nawet jego koledzy nie będą w stanie rozpracować...


Patologia / Pathology (2008) PL.1080p.BluRay.DTS.x264-Destiny / POLSKI LEKTOR
Patologia / Pathology (2008) PL.1080p.BluRay.DTS.x264-Destiny / POLSKI LEKTOR

Format : Matroska
File size : 7.70 GiB
Duration : 1h 34mn
Overall bit rate : 11.6 Mbps
Video
ID : 1
Format : AVC
Format/Info : Advanced Video Codec
Format profile : High@L4.1
Duration : 1h 34mn
Bit rate : 9 730 Kbps
Width : 1 920 pixels
Height : 816 pixels
Display aspect ratio : 2.35:1
Frame rate : 23.976 fps
Stream size : 6.29 GiB (82%)
Writing library : x264 core 65 r1051M 549cc55
Language : English
Audio #1
Format : DTS
Duration : 1h 34mn
Bit rate mode : Constant
Bit rate : 1 510 Kbps
Channel(s) : 6 channels
Stream size : 1.00 GiB (13%)
Title : DTS 5.1 1536 kbps
Language : English
Audio #2
Codec ID : A_AC3
Duration : 1h 34mn
Bit rate mode : Constant
Bit rate : 384 Kbps
Channel(s) : 6 channels
Stream size : 260 MiB (3%)
Title : Destiny-Polski



Patologia / Pathology (2008) PL.1080p.BluRay.DTS.x264-Destiny / POLSKI LEKTOR
Uwaga! Linki nie zakodowane tylko dla zarejestrowanych użytkowników!

Nie masz konta? Zarejestruj się za darmo!
----------------
Links are not encoded only for registered users only! Plese login or register!



Użytkownik VIP

CrashRedVIP

#1 | Dodany: 4 Grudzień 2011 20:05

ok

Informacje

Jeżeli chcesz skomentować artykuł musisz być zarejestrowany na stronie.