EXSite.pl - Portal ze wszystkim Mamy tutaj wszystko

NIE MASZ JESZCZE KONTA? ZAREJESTRUJ SIĘ ZA DARMO!   
Przypomnij hasło X

Klik: i robisz, co chcesz / Click (2006) PL.BluRay.m720p.x264-LTN

Dodał: H1s 6 Grudzień 2011 06:45


Klik: i robisz, co chcesz / Click (2006) PL.BluRay.m720p.x264-LTN

Klik: i robisz, co chcesz / Click (2006) PL.BluRay.m720p.x264-LTN

Newman jest normalnym, szarym człowieczkiem ze szczęśliwą rodzinką. Pewnego dnia (chcąc zakupić uniwersalny pilot) staje przed szansą ułatwienia sobie życia. Jednakże nasz bohater ułatwia sobie życie nieco nadgorliwie, w wyniku czego życie rodzinne (także erotyczne) przelatuje mu przed nosem. W ko?cu Michael Newman stwierdza, że na nic mu się nie zda kariera zawodowa skoro życie jak strumie? przepłynęło, i zaczyna doceniać to, co miał.
Klik.2006.PL.BluRay.m720p.x264-LTN
ŹRÓDŁO: Klik.2006.PL.BluRay.720p.x264-LTN
OGÓLNE: Matroska, mkv, 2.18 GB, 1h 47mn 31s 392ms
WIDEO: 1280x694 (720p), x264 ~ 2461 Kbps, FPS: 23.976, High@L4.1, 16:9
AUDIO: Polski Lektor (profesjonalny) AC3 5.1 ~ 448 kbps
NAPISY: Brak
INFORMACJE EXTRA: Party można pobierać naprzemiennie, Party zawierają dane naprawcze


FileSonic:
Uwaga! Linki nie zakodowane tylko dla zarejestrowanych użytkowników!

Nie masz konta? Zarejestruj się za darmo!
----------------
Links are not encoded only for registered users only! Plese login or register!


FileServe:
Uwaga! Linki nie zakodowane tylko dla zarejestrowanych użytkowników!

Nie masz konta? Zarejestruj się za darmo!
----------------
Links are not encoded only for registered users only! Plese login or register!


UploadStation:
Uwaga! Linki nie zakodowane tylko dla zarejestrowanych użytkowników!

Nie masz konta? Zarejestruj się za darmo!
----------------
Links are not encoded only for registered users only! Plese login or register!


FileJungle:
Uwaga! Linki nie zakodowane tylko dla zarejestrowanych użytkowników!

Nie masz konta? Zarejestruj się za darmo!
----------------
Links are not encoded only for registered users only! Plese login or register!


Użytkownik VIP

CrashRedVIP

#1 | Dodany: 6 Grudzień 2011 14:18

Klik: I robisz, co chcesz / Click (2006) PL.720p.BluRay.x264-Crash / POLSKI LEKTOR +mHD

Format : Matroska
File size : 4.85 GiB
Duration : 1h 47mn
Overall bit rate : 6 464 Kbps
Format/Info : Advanced Video Codec
Format profile : High@L5.1
Duration : 1h 47mn
Bit rate : 5 065 Kbps
Width : 1 280 pixels
Height : 694 pixels
Display aspect ratio : 16:9
Frame rate : 23.976 fps
Stream size : 3.71 GiB (76%)
Title : 1280x694 @ 4375 Kbps
Writing library : x264 core 59 r839M 27c3071
Language : English
Audio #1
Format : DTS
Duration : 1h 47mn
Bit rate mode : Constant
Bit rate : 755 Kbps
Channel(s) : 6 channels
Stream size : 580 MiB (12%)
Title : DTS 5.1 @ 768 Kbps
Language : English
Audio #2
Format : AC-3
Duration : 1h 47mn
Bit rate mode : Constant
Bit rate : 640 Kbps
Channel(s) : 6 channels
Stream size : 492 MiB (10%)
Title : Crash-Polski


Uwaga! Linki nie zakodowane tylko dla zarejestrowanych użytkowników!

Nie masz konta? Zarejestruj się za darmo!
----------------
Links are not encoded only for registered users only! Plese login or register!


Klik: I robisz, co chcesz / Click (2006) PL.720p.BluRay..x264-Crash / POLSKI LEKTOR

Format : Matroska
File size : 2.64 GiB
Duration : 1h 47mn
Overall bit rate : 3 515 Kbps
Format/Info : Advanced Video Codec
Format profile : High@L4.1
Duration : 1h 47mn
Bit rate : 2 872 Kbps
Width : 1 280 pixels
Height : 692 pixels
Display aspect ratio : 1.850
Frame rate : 23.976 fps
Stream size : 2.11 GiB (80%)
Title : Click [2006] m720p ~*cyke2702@aRiL*~
Writing library : x264 core 114 r1924 08d04a4
Language : English
Audio
Format : AC-3
Duration : 1h 47mn
Bit rate mode : Constant
Bit rate : 640 Kbps
Channel(s) : 6 channels
Stream size : 492 MiB (18%)


Uwaga! Linki nie zakodowane tylko dla zarejestrowanych użytkowników!

Nie masz konta? Zarejestruj się za darmo!
----------------
Links are not encoded only for registered users only! Plese login or register!

Użytkownik VIP

OlafSionLOLUżytkownik

#2 | Dodany: 5 Grudzień 2013 12:54

Klik: i robisz, co chcesz / Click (2006) 720p - Lektor PL


Format : AVI at 2.753 Kb/s
Length : 2,07 GB for 1h 47 min. 31s 451ms

Video #0 : AVC at 2.300 Kb/s
Aspect : 1280 x 688 (1.861) at 23.976 fps

Audio #0 : AC-3 at 448 Kb/s
Infos : 6 kanałów, 48,0 KHz

Hasło: Brak


Download

Egofiles.com
Uwaga! Linki nie zakodowane tylko dla zarejestrowanych użytkowników!

Nie masz konta? Zarejestruj się za darmo!
----------------
Links are not encoded only for registered users only! Plese login or register!

Informacje

Jeżeli chcesz skomentować artykuł musisz być zarejestrowany na stronie.