EXSite.pl - Portal ze wszystkim Mamy tutaj wszystko

NIE MASZ JESZCZE KONTA? ZAREJESTRUJ SIĘ ZA DARMO!   
Przypomnij hasło X

Od zmierzchu do świtu / From Dusk Till Dawn (1996) m720p.AC3.PL.x264-maaaniek

Dodał: maaaniek2 6 Grudzień 2011 20:33


Od zmierzchu do świtu / From Dusk Till Dawn (1996) m720p.AC3.PL.x264-maaaniek

audio: polski lektor Od zmierzchu do świtu / From Dusk Till Dawn (1996) m720p.AC3.PL.x264-maaaniek
Od zmierzchu do świtu / From Dusk Till Dawn (1996) m720p.AC3.PL.x264-maaaniek

Od zmierzchu do świtu / From Dusk Till Dawn (1996) m720p.AC3.PL.x264-maaaniek
O FILMIE:

czas trwania: 1 godz. 48 min.
gatunek: Horror, Akcja
premiera: 8 listopada 1996 (Polska) 19 stycznia 1996 (świat)
reżyseria: Robert Rodriguez
scenariusz: Quentin Tarantino



Dwaj bracia, kryminaliści uciekają ze Stanów do Meksyku. Po drodze zatrzymują się w barze, który okazuje się być opanowany przez wampiry. Nasi bohaterowie, wspólnie z uwięzionym z nimi księdzem i jego dziećmi będą musieli stawić im czoła.

Od zmierzchu do świtu / From Dusk Till Dawn (1996) m720p.AC3.PL.x264-maaaniek

Od zmierzchu do świtu / From Dusk Till Dawn (1996) m720p.AC3.PL.x264-maaaniek

http://www.filmweb.pl/film/Od+zmierzchu+do+%C5%9Bwitu-1996-8269

Od zmierzchu do świtu / From Dusk Till Dawn (1996) m720p.AC3.PL.x264-maaaniek
DANE TECHNICZNE:



Od zmierzchu do świtu / From Dusk Till Dawn (1996) m720p.AC3.PL.x264-maaaniek
Archiwum RAR w partach po ~ 1gb

Archiwum testowane przed uploadem

Dodane dane naprawcze

Linki zamienne


Od zmierzchu do świtu / From Dusk Till Dawn (1996) m720p.AC3.PL.x264-maaaniek
DOWNLOAD:

Uwaga! Linki nie zakodowane tylko dla zarejestrowanych użytkowników!

Nie masz konta? Zarejestruj się za darmo!
----------------
Links are not encoded only for registered users only! Plese login or register!


Od zmierzchu do świtu / From Dusk Till Dawn (1996) m720p.AC3.PL.x264-maaaniek
HASŁO:

bez hasła



Martwe linki? Potrzebny reupload? Wejdź tutaj i napisz wiadomość

Zobacz koniecznie moje newsy na EXSite.pl z filmami w HD m720p!

Użytkownik VIP

CrashRedVIP

#1 | Dodany: 17 Grudzień 2011 19:32

[size=2]Od zmierzchu do świtu / From Dusk Till Dawn (1996) PL.720p.BluRay.x264-Crash / POLSKI LEKTOR[/size]

Format : Matroska
File size : 3.52 GiB
Duration : 1h 47mn
Overall bit rate : 4 671 Kbps
Video
Format/Info : Advanced Video Codec
Format profile : High@L3.1
Duration : 1h 47mn
Bit rate : 4 290 Kbps
Width : 1 280 pixels
Height : 720 pixels
Display aspect ratio : 16:9
Frame rate : 23.976 fps
Stream size : 3.16 GiB (90%)
Writing library : x264 core 65 r999 cc51047
Language : English
Audio
ID : 2
Format/Info : Audio Coding 3
Duration : 1h 47mn
Bit rate mode : Constant
Bit rate : 384 Kbps
Channel(s) : 6 channels
Stream size : 297 MiB (8%)
Title : Crash-Polski


Uwaga! Linki nie zakodowane tylko dla zarejestrowanych użytkowników!

Nie masz konta? Zarejestruj się za darmo!
----------------
Links are not encoded only for registered users only! Plese login or register!


Użytkownik VIP

darkwizardUżytkownik

#2 | Dodany: 2 Listopad 2012 20:07


Od zmierzchu do świtu / From Dusk Till Dawn (1996) PL.720p.BluRay.x264.AC3 / Lektor PL




Format : Matroska at 4 669 Kbps
Length : 3.52 GiB for 1h 47mn 59s 372ms

Video #0 : AVC at 4 290 Kbps
Aspect : 1280 x 720 (1.778) at 23.976 fps

Audio #0 : AC-3 at 384 Kbps
Infos : 6 channels, 48.0 KHz

V:SiNNERS




Szybkie serwery dla free userow

Uwaga! Linki nie zakodowane tylko dla zarejestrowanych użytkowników!

Nie masz konta? Zarejestruj się za darmo!
----------------
Links are not encoded only for registered users only! Plese login or register!
tylko darmowe hosty

Informacje

Jeżeli chcesz skomentować artykuł musisz być zarejestrowany na stronie.