EXSite.pl - Portal ze wszystkim Mamy tutaj wszystko

NIE MASZ JESZCZE KONTA? ZAREJESTRUJ SIĘ ZA DARMO!   
Przypomnij hasło X

Angielska robota / The Bank Job (2008) PL.1080p.BluRay.x264-Crash / POLSKI LEKTOR

Dodał: CrashRed 10 Grudzień 2011 16:41


Angielska robota / The Bank Job (2008) PL.1080p.BluRay.x264-Crash / POLSKI LEKTOR

Angielska robota / The Bank Job (2008) PL.1080p.BluRay.x264-Crash / POLSKI LEKTOR

Angielska robota / The Bank Job (2008) PL.1080p.BluRay.x264-Crash / POLSKI LEKTOR
http://www.filmweb.pl/film/Angielska+robota-2008-402798

czas trwania: 1 godz. 50 min.
gatunek: Kryminał, Sensacyjny
premiera: 25 lipca 2008 (Polska) 2008-07-25 19 lutego 2008 (świat) 2008-02-19
reżyseria: Roger Donaldson
scenariusz: Dick Clement, Ian La Frenais

Opowieść o legendarnym już napadzie na bank na londy?skiej Baker Street w 1971 roku. Legendarnym, bo aż do dziś ani nikogo w tej sprawie nie aresztowano, ani nie odzyskano nawet pensa ze skradzionych przez rabusiów pieniędzy. Dodatkowo, przez niemal 35 lat, brytyjski rząd zakazał jakichkolwiek informacji na ten temat.


Angielska robota / The Bank Job (2008) PL.1080p.BluRay.x264-Crash / POLSKI LEKTOR
Angielska robota / The Bank Job (2008) PL.1080p.BluRay.x264-Crash / POLSKI LEKTOR

Format : Matroska
File size : 7.07 GiB
Duration : 1h 52mn
Overall bit rate : 9 033 Kbps
Video
Format/Info : Advanced Video Codec
Format profile : High@L5.1
Duration : 1h 52mn
Bit rate : 8 580 Kbps
Width : 1 920 pixels
Height : 816 pixels
Display aspect ratio : 2.35:1
Frame rate : 23.976 fps
Stream size : 6.58 GiB (93%)
Writing library : x264 core 60 r877M c74a8e2
Language : English
Audio
Format : AC-3
Duration : 1h 52mn
Bit rate mode : Constant
Bit rate : 448 Kbps
Channel(s) : 6 channels
Stream size : 359 MiB (5%)
Title : Crash-Polski



Angielska robota / The Bank Job (2008) PL.1080p.BluRay.x264-Crash / POLSKI LEKTOR
Uwaga! Linki nie zakodowane tylko dla zarejestrowanych użytkowników!

Nie masz konta? Zarejestruj się za darmo!
----------------
Links are not encoded only for registered users only! Plese login or register!



Użytkownik VIP

CrashRedVIP

#1 | Dodany: 10 Grudzień 2011 16:42

ok

Informacje

Jeżeli chcesz skomentować artykuł musisz być zarejestrowany na stronie.