EXSite.pl - Portal ze wszystkim Mamy tutaj wszystko

NIE MASZ JESZCZE KONTA? ZAREJESTRUJ SIĘ ZA DARMO!   
Przypomnij hasło X

W samo południe / High Noon (1952) PL.HDTV.720p.x264.Crash / POLSKI LEKTOR +mHD

Dodał: CrashRed 15 Styczeń 2012 14:47


W samo południe / High Noon (1952) PL.HDTV.720p.x264.Crash / POLSKI LEKTOR

W samo południe / High Noon (1952) PL.HDTV.720p.x264.Crash / POLSKI LEKTOR   +mHD

W samo południe / High Noon (1952) PL.HDTV.720p.x264.Crash / POLSKI LEKTOR   +mHD
http://www.filmweb.pl/film/W+samo+po%C5%82udnie-1952-31636

czas trwania: 1 godz. 25 min.
gatunek: Dramat, Western
premiera: 7 lipca 1952 (świat) 1952-07-07
reżyseria: Fred Zinnemann
scenariusz: Carl Foreman, John W. Cunningham

Gary Cooper został laureatem Oscara za rolę w klasycznej opowieści o stróżu prawa, który samotnie broni tchórzliwych mieszka?ców miasteczka przed bandą szukających zemsty kryminalistów. W największym rewolwerowym pojedynku w dziejach kina Gary Cooper walczy nie tylko o miasto, ale i o świeżo poślubioną żonę, graną przez Grace Kelly. W filmie występuje również jeden z najpopularniejszych i najbardziej utalentowanych aktorów Hollywood: Lloyd Bridges. "W samo południe" zapisuje się też w pamięci
dzięki pierwszej głównej roli Grace Kelly - pięknej aktorki, która wkrótce przeszła do legendy kina. Film zdobył w sumie cztery Oscary, w tym za montaż, muzykę i piosenkę


Format : Matroska
File size : 4.60 GiB
Duration : 1h 24mn
Overall bit rate : 7 777 Kbps
Video
Format/Info : Advanced Video Codec
Format profile : High@L4.1
Duration : 1h 24mn
Bit rate : 7 005 Kbps
Width : 968 pixels
Height : 720 pixels
Display aspect ratio : 4:3
Frame rate : 23.976 fps
Stream size : 4.06 GiB (88%)
Title : Crash
Writing library : x264 core 112 r1867 22bfd31
Language : English
Audio #1
Format/Info : Audio Coding 3
Duration : 1h 24mn
Bit rate mode : Constant
Bit rate : 384 Kbps
Channel(s) : 6 channels
Stream size : 233 MiB (5%)
Language : English
Audio #2
Format : AC-3
Duration : 1h 24mn
Bit rate mode : Constant
Bit rate : 384 Kbps
Channel(s) : 6 channels
Stream size : 233 MiB (5%)
Title : Crash-Polski



W samo południe / High Noon (1952) PL.HDTV.720p.x264.Crash / POLSKI LEKTOR   +mHD
Uwaga! Linki nie zakodowane tylko dla zarejestrowanych użytkowników!

Nie masz konta? Zarejestruj się za darmo!
----------------
Links are not encoded only for registered users only! Plese login or register!








W samo południe / High Noon (1952) PL.HDTV.m-720p.x264.AC3-Crash / POLSKI LEKTOR

Format : Matroska
File size : 1.65 GiB
Duration : 1h 24mn
Overall bit rate : 2 787 Kbps
Movie name : High Noon (1952)
Video
Format/Info : Advanced Video Codec
Format profile : High@L4.1
Duration : 1h 24mn
Bit rate : 2 400 Kbps
Width : 968 pixels
Height : 720 pixels
Display aspect ratio : 4:3
Frame rate : 23.976 fps
Stream size : 1.39 GiB (84%)
Title : x264@2400Kbps - Mxx
Writing library : x264 core 116 r2074 2641b9e
Language : English
Audio
Format : AC-3
Duration : 1h 24mn
Bit rate mode : Constant
Bit rate : 384 Kbps
Channel(s) : 6 channels
Stream size : 233 MiB (14%)
Title : Crash-Polski


Uwaga! Linki nie zakodowane tylko dla zarejestrowanych użytkowników!

Nie masz konta? Zarejestruj się za darmo!
----------------
Links are not encoded only for registered users only! Plese login or register!


Użytkownik VIP

CrashRedVIP

#1 | Dodany: 10 Grudzień 2011 17:24

ok
Użytkownik VIP

dyskoteka1987Trial Uploader

#2 | Dodany: 10 Grudzień 2011 20:34

thx

Informacje

Jeżeli chcesz skomentować artykuł musisz być zarejestrowany na stronie.