EXSite.pl - Portal ze wszystkim Mamy tutaj wszystko

NIE MASZ JESZCZE KONTA? ZAREJESTRUJ SIĘ ZA DARMO!   
Przypomnij hasło X

Pearl Harbor (2001) PL.m-720p.BluRay.x264.AC3-Crash / POLSKI LEKTOR

Dodał: CrashRed 10 Grudzień 2011 19:26


Pearl Harbor (2001) PL.m-720p.BluRay.x264.AC3-Crash / POLSKI LEKTOR

Pearl Harbor (2001) PL.m-720p.BluRay.x264.AC3-Crash / POLSKI LEKTOR

Pearl Harbor (2001) PL.m-720p.BluRay.x264.AC3-Crash / POLSKI LEKTOR
http://www.filmweb.pl/Pearl.Harbor

czas trwania: 3 godz. 3 min.
gatunek: Melodramat, Wojenny
premiera: 6 lipca 2001 (Polska) 2001-07-06 21 maja 2001 (świat) 2001-05-21
reżyseria: Michael Bay
scenariusz: Randall Wallace

Opowieść o wojnie, miłości, męskiej przyjaźni i wielkiej pasji. Stany Zjednoczone, rok 1941. Dwaj przyjaciele i zapaleni piloci - Rafe (Ben Affleck) i Danny (Josh Hartnett) służą w lotnictwie. Rafe zakochuje się z wzajemnością w pięknej pielęgniarce Evelyn (Kate Beckinsale). Sielanka ko?czy się, gdy młody pilot opuszcza Amerykę, by wziąć udział w bitwie o Anglię. Wkrótce przychodzi wiadomość o jego śmierci. Kilka miesięcy później Evelyn i Danny, którzy w międzyczasie zostali przeniesieni do Pear
Harbor na Hawajach, nawiązują romans. Tymczasem z wojny wraca cały i zdrowy Rafe. W tym momencie w splątane losy bohaterów ingeruje historia - japo?skie bomby spadają na Pearl Harbor...


Pearl Harbor (2001) PL.m-720p.BluRay.x264.AC3-Crash / POLSKI LEKTOR
Pearl Harbor (2001) PL.m-720p.BluRay.x264.AC3-Crash / POLSKI LEKTOR

Format : Matroska
File size : 3.84 GiB
Duration : 3h 3mn
Overall bit rate : 3 002 Kbps
Video
ID : 1
Format/Info : Advanced Video Codec
Format profile : High@L4.1
Duration : 3h 3mn
Bit rate : 2 551 Kbps
Width : 1 280 pixels
Height : 544 pixels
Display aspect ratio : 2.35:1
Frame rate : 23.976 fps
Stream size : 3.19 GiB (83%)
Writing library : x264 core 114 r1913 5fd3dce
Language : English
Audio
Format : AC-3
Codec ID : A_AC3
Duration : 3h 3mn
Bit rate mode : Constant
Bit rate : 448 Kbps
Channel(s) : 6 channels
Stream size : 587 MiB (15%)
Title : Crash-Polski
Language : Polish



Pearl Harbor (2001) PL.m-720p.BluRay.x264.AC3-Crash / POLSKI LEKTOR
Uwaga! Linki nie zakodowane tylko dla zarejestrowanych użytkowników!

Nie masz konta? Zarejestruj się za darmo!
----------------
Links are not encoded only for registered users only! Plese login or register!



Użytkownik VIP

CrashRedVIP

#1 | Dodany: 10 Grudzień 2011 19:26

ok
Użytkownik VIP

rapmarxUżytkownik

#2 | Dodany: 11 Grudzień 2011 17:39

7yuiy7
Użytkownik VIP

krzysiek233newUżytkownik

#3 | Dodany: 18 Grudzień 2011 11:07

super !
Użytkownik VIP

qgrzegorzGość

#4 | Dodany: 22 Luty 2012 18:41

Pearl Harbor (2001) PL.m-720p.BluRay.x264.AC3-Crash POLSKI LEKTOR

Dane Techniczne:
General           : Pearl.Harbor.2001.PL.m-720p.BluRay.x264.AC3-Crash.mkv
Format            : Matroska at 3.002 Kb/s
Length            : 3,84 GB for 3h 3 min. 5s 16ms

Video #0          : AVC at 2.551 Kb/s
Aspect            : 1280 x 544 (2.353) at 23.976 fps

Audio #0          : AC-3 at 448 Kb/s
Infos             : 6 kanałów, 48,0 KHz
Language          : pl

INFO Lektor: lektor profesjonalny
Źródło obrazu: *Blu-ray/DVD*


Opis uploadu:
wielkość całości: 4.26 GB
rodzaj kompresji: RAR
zawartość uploadu: plik .mkv
wersja językowa: PL
Dane naprawcze:10%


Download:
Uwaga! Linki nie zakodowane tylko dla zarejestrowanych użytkowników!

Nie masz konta? Zarejestruj się za darmo!
----------------
Links are not encoded only for registered users only! Plese login or register!


HASŁO:

filmik

Martwe linki.Pisz na PW zrobie reupload.
Użytkownik VIP

TOM321Użytkownik

#5 | Dodany: 9 Grudzień 2013 12:07

poproszę o serwer catshare ;)

Informacje

Jeżeli chcesz skomentować artykuł musisz być zarejestrowany na stronie.