EXSite.pl - Portal ze wszystkim Mamy tutaj wszystko

NIE MASZ JESZCZE KONTA? ZAREJESTRUJ SIĘ ZA DARMO!   
Przypomnij hasło X

Droga do szczęścia / Revolutionary Road (2008) PL.720p.BluRay.x264.Crash / POLSKI LEKTOR

Dodał: CrashRed 11 Grudzień 2011 16:23


Droga do szczęścia / Revolutionary Road (2008) PL.720p.BluRay.x264.Crash / POLSKI LEKTOR

Droga do szczęścia / Revolutionary Road (2008) PL.720p.BluRay.x264.Crash / POLSKI LEKTOR

Droga do szczęścia / Revolutionary Road (2008) PL.720p.BluRay.x264.Crash / POLSKI LEKTOR
http://www.filmweb.pl/film/Droga+do+szcz%C4%99%C5%9Bcia-2008-419862

czas trwania: 1 godz. 59 min.
gatunek: Melodramat
Wielka Brytania, USA | Melodramat

premiera: 30 stycznia 2009 (Polska) 2009-01-30 15 grudnia 2008 (świat) 2008-12-15
reżyseria: Sam Mendes
scenariusz: Justin Haythe

Film zrealizowany na podstawie książki Richarda Yatesa. April i Frank Wheeler to młode małże?stwo mieszkające z dwójką dzieci na przedmieściach Connecticut w połowie lat 50-tych. Oboje skutecznie maskują frustrację spowodowaną niemożnością spełnienia się zarówno w związku jak i karierze zawodowej. Frank ugrzązł w dobrze płatnej, ale nudnej pracy biurowej. Gospodyni domowa, April, ciągle opłakuje stojącą kiedyś przed nią szansę na zrobienie kariery aktorskiej. Nie mogąc znieść przeciętności, jaka
ich otacza, decydują się wyjechać do Francji, gdzie będą w stanie rozwijać swoją wrażliwość artystyczną wolni od konsumpcyjnych wymaga? kapitalistycznej Ameryki. Kiedy jednak ich związek zamienia się w niesko?czone pasmo sprzeczek, zazdrości i wzajemnych oskarże?, ich podróż oraz marzenia o samospełnieniu stają w obliczu zagrożenia


Droga do szczęścia / Revolutionary Road (2008) PL.720p.BluRay.x264.Crash / POLSKI LEKTOR
Droga do szczęścia / Revolutionary Road (2008) PL.720p.BluRay.x264.Crash / POLSKI LEKTOR

Format : Matroska
File size : 4.32 GiB
Duration : 1h 59mn
Overall bit rate : 5 196 Kbps
Video
Format/Info : Advanced Video Codec
Format profile : Main@L4.1
Duration : 1h 59mn
Bit rate : 4 552 Kbps
Width : 1 280 pixels
Height : 544 pixels
Display aspect ratio : 2.35:1
Frame rate : 23.976 fps
Stream size : 3.70 GiB (86%)
Writing library : x264 core 67 r1153M 7b6ce6a
Language : English
Audio
Format : AC-3
Duration : 1h 59mn
Bit rate mode : Constant
Bit rate : 640 Kbps
Channel(s) : 6 channels
Stream size : 545 MiB (12%)
Title : Crash-Polski



Droga do szczęścia / Revolutionary Road (2008) PL.720p.BluRay.x264.Crash / POLSKI LEKTOR
Uwaga! Linki nie zakodowane tylko dla zarejestrowanych użytkowników!

Nie masz konta? Zarejestruj się za darmo!
----------------
Links are not encoded only for registered users only! Plese login or register!



Użytkownik VIP

CrashRedVIP

#1 | Dodany: 11 Grudzień 2011 16:23

ok

Informacje

Jeżeli chcesz skomentować artykuł musisz być zarejestrowany na stronie.