EXSite.pl - Portal ze wszystkim Mamy tutaj wszystko

NIE MASZ JESZCZE KONTA? ZAREJESTRUJ SIĘ ZA DARMO!   
Przypomnij hasło X

14 ostrzy / 14 Blades / Gam yee wai (2010) PL.720p.BluRay.x264-Destiny / POLSKI LEKTOR

Dodał: CrashRed 11 Grudzień 2011 17:55


14 ostrzy / 14 Blades / Gam yee wai (2010) PL.720p.BluRay.x264-Destiny / POLSKI LEKTOR

14 ostrzy / 14 Blades / Gam yee wai (2010) PL.720p.BluRay.x264-Destiny / POLSKI LEKTOR

14 ostrzy / 14 Blades / Gam yee wai (2010) PL.720p.BluRay.x264-Destiny / POLSKI LEKTOR
http://www.filmweb.pl/film/14+ostrzy-2010-521848

czas trwania: 1 godz. 54 min.
gatunek: Thriller, Akcja, Dramat historyczny
Singapur, Chiny, Hongkong
premiera: 4 lutego 2010 (świat) 2010-02-04
reżyseria: Daniel Lee
scenariusz: Daniel Lee, Abe Kwong (więcej...)

Tytułowe "14 ostrzy" (jinyi wei) to bro? osobistej gwardii cesarzy Chin z dynastii Ming. Czternaście ostrzy, osiem służyło do tortur, pięć do zabijania, ostatnie zadawało samobójczą śmierć w razie niepowodzenia misji. Owa gwardia składała się z wyszkolonych zabójców rekrutowanych spośród ulicznych sierot. Ponad prawem, z licencją na zabijanie, oraz z nieludzką sprawnością poświęcali swoje życie by służyć cesarzowi. Kiedy władzę przejmuję zły eunuch Jia, dwóch najlepszych spośród gwardzistów
jinyi wei: Quinlong (Donnie Yen) i Xuanwu zostaje wyznaczonych do wykradzenia listy zawierającej nazwiska osób lojalnych wobec cesarskiej władzy. Zdradzony przez swojego towarzysza Quinlong ledwo uchodzi z życiem. W pojedynkę musi jak najszybciej odnaleźć ludzi z listy. Zadanie utrudni mu ścigająca go gwardia jinyi wei, która teraz jest już pod kontrolą Jia


14 ostrzy / 14 Blades / Gam yee wai (2010) PL.720p.BluRay.x264-Destiny / POLSKI LEKTOR
14 ostrzy / 14 Blades / Gam yee wai (2010) PL.720p.BluRay.x264-Destiny / POLSKI LEKTOR

Format : Matroska
File size : 6.71 GiB
Duration : 1h 52mn
Overall bit rate : 8 512 Kbps
Video
Format/Info : Advanced Video Codec
Format profile : High@L4.1
Duration : 1h 52mn
Bit rate : 7 682 Kbps
Width : 1 280 pixels
Height : 544 pixels
Display aspect ratio : 2.35:1
Frame rate : 24.000 fps
Stream size : 5.92 GiB (88%)
Writing library : x264 core 92 r1523 25ca5b0
Language : English
Audio #1
Format : AC-3
Duration : 1h 52mn
Bit rate mode : Constant
Bit rate : 640 Kbps
Channel(s) : 6 channels
Stream size : 517 MiB (8%)
Language : Chinese
Audio #2
Format : AC-3
Duration : 1h 52mn
Bit rate mode : Constant
Bit rate : 192 Kbps
Channel(s) : 2 channels
Stream size : 155 MiB (2%)
Title : Destiny-Polski



14 ostrzy / 14 Blades / Gam yee wai (2010) PL.720p.BluRay.x264-Destiny / POLSKI LEKTOR
Uwaga! Linki nie zakodowane tylko dla zarejestrowanych użytkowników!

Nie masz konta? Zarejestruj się za darmo!
----------------
Links are not encoded only for registered users only! Plese login or register!



Użytkownik VIP

CrashRedVIP

#1 | Dodany: 11 Grudzień 2011 17:55

ok
Użytkownik VIP

kurgan77Użytkownik

#2 | Dodany: 11 Grudzień 2011 20:30

thx
http://xboxpirate.com/how-to-convert-lt-3-0-iso-to-lt-2-0-compatible-iso/

Informacje

Jeżeli chcesz skomentować artykuł musisz być zarejestrowany na stronie.