EXSite.pl - Portal ze wszystkim Mamy tutaj wszystko

NIE MASZ JESZCZE KONTA? ZAREJESTRUJ SIĘ ZA DARMO!   
Przypomnij hasło X

Revolver (2005) PL.BluRay.720p.x264.Crash / POLSKI LEKTOR

Dodał: CrashRed 11 Grudzień 2011 18:26


Revolver (2005) PL.BluRay.720p.x264.Crash / POLSKI LEKTOR

Revolver (2005) PL.BluRay.720p.x264.Crash / POLSKI LEKTOR

Revolver (2005) PL.BluRay.720p.x264.Crash / POLSKI LEKTOR
http://www.filmweb.pl/Revolver

czas trwania: 1 godz. 55 min.
gatunek: Dramat, Kryminał
Wielka Brytania, Francja
premiera: 18 listopada 2005 (Polska) 2005-11-18 11 września 2005 (świat) 2005-09-11
reżyseria: Guy Ritchie
scenariusz: Guy Ritchie, Ethan Gross

Akcja filmu rozgrywa się w gangsterskim półświatku Las Vegas. Głównym bohaterem jest Jake Green, hazardzista mający wielkie szczęście, lecz krótki rozum. Rzadko jest wpuszczany do kasyn, bo zawsze wygrywa. Pewnego wieczoru wraz ze swoimi braćmi, Billym i Joe, zostaje zaproszony do prywatnej gry z gangsterem Dorothy Machą, przywódcą lokalnej mafii. Jake nie boi się Machy i nie tylko ogrywa go doszczętnie, ale jeszcze stroi sobie z niego żarty. Oczywiście Macha chce się zemścić i wydaje na niego wyrok śmierci.


Revolver (2005) PL.BluRay.720p.x264.Crash / POLSKI LEKTOR

Format : Matroska
File size : 3.37 GiB
Duration : 1h 51mn
Overall bit rate : 4 338 Kbps
Video
Format/Info : Advanced Video Codec
Format profile : High@L5.1
Duration : 1h 51mn
Bit rate : 4 110 Kbps
Width : 1 280 pixels
Height : 544 pixels
Display aspect ratio : 2.35:1
Frame rate : 23.976 fps
Stream size : 3.13 GiB (93%)
Writing library : x264 core 65 r998M 6768543
Language : English
Audio
Format : AC-3
Duration : 1h 51mn
Bit rate mode : Constant
Bit rate : 224 Kbps
Channel(s) : 2 channels
Stream size : 178 MiB (5%)
Title : Crash-Polski



Revolver (2005) PL.BluRay.720p.x264.Crash / POLSKI LEKTOR
Uwaga! Linki nie zakodowane tylko dla zarejestrowanych użytkowników!

Nie masz konta? Zarejestruj się za darmo!
----------------
Links are not encoded only for registered users only! Plese login or register!



Użytkownik VIP

CrashRedVIP

#1 | Dodany: 11 Grudzień 2011 18:26

ok
Użytkownik VIP

dyskoteka1987Trial Uploader

#2 | Dodany: 11 Grudzień 2011 19:08

thx thx thx
Użytkownik VIP

olutekUżytkownik

#3 | Dodany: 16 Czerwiec 2015 20:27

tylko jak to sciagnac?

Informacje

Jeżeli chcesz skomentować artykuł musisz być zarejestrowany na stronie.