EXSite.pl - Portal ze wszystkim Mamy tutaj wszystko

NIE MASZ JESZCZE KONTA? ZAREJESTRUJ SIĘ ZA DARMO!   
Przypomnij hasło X

Chinatown (1974) [Lektor PL] m720p.AC3.x264-ortamci

Dodał: estres 13 Grudzień 2011 14:00


Chinatown (1974) [Lektor PL] m720p.AC3.x264-ortamci

Chinatown (1974) [Lektor PL] m720p.AC3.x264-ortamci

premiera: 20 czerwca 1974 (świat)
reżyseria: Roman Pola?ski
scenariusz: Roman Pola?ski, Robert Towne
wersja: [m720p] [Lektor PL] [FilmWeb 8.0/10] [Matroska] [2.0 GB] [2h 10mn]

OPIS FILMU:

Pechowy prywatny detektyw, tajemnicza piękność, bezwzględny mafioso oraz skomplikowana intryga utkana ze zdrady, morderstw, korupcji, skandali i śmiertelnie niebezpiecznych układów. Wszystko to w mrocznej i stylowej opowieści o latach 30-tych, uznawanej za pozycję wyjątkową i ponadczasową, a także za hołd Romana Pola?skiego dla niezwykłego gatunku, jakim jest klasyczny czarny kryminał. Intrygujący scenariusz (Oscar dla Roberta Towne), mistrzowska reżyseria i niezapomniane kreacje.

General
Format : Matroska
File size : 1.96 GiB
Duration : 2h 10mn
Overall bit rate : 2 152 Kbps
Writing library : libebml v0.7.9 + libmatroska v0.8.1

Video
Format : AVC
Format/Info : Advanced Video Codec
Format profile : High@L5.0
Codec ID : V_MPEG4/ISO/AVC
Duration : 2h 10mn
Bit rate : 1 469 Kbps
Width : 1 280 pixels
Height : 544 pixels
Display aspect ratio : 2.35:1
Frame rate : 23.976 fps

Audio
Format : AC-3
Duration : 2h 10mn
Bit rate : 640 Kbps
Channel(s) : 6 channels
Channel positions : Front: L C R, Side: L R, LFE
Sampling rate : 48.0 KHz
Language : Polish




Linki można pobierać na przemian / 4x ~500MB+1x ~112MB /
Brak hasła / Dane naprawcze 5%


Filesonic.com

Uwaga! Linki nie zakodowane tylko dla zarejestrowanych użytkowników!

Nie masz konta? Zarejestruj się za darmo!
----------------
Links are not encoded only for registered users only! Plese login or register!

lub
Uwaga! Linki nie zakodowane tylko dla zarejestrowanych użytkowników!

Nie masz konta? Zarejestruj się za darmo!
----------------
Links are not encoded only for registered users only! Plese login or register!

Fileserve.com

Uwaga! Linki nie zakodowane tylko dla zarejestrowanych użytkowników!

Nie masz konta? Zarejestruj się za darmo!
----------------
Links are not encoded only for registered users only! Plese login or register!

lub
Uwaga! Linki nie zakodowane tylko dla zarejestrowanych użytkowników!

Nie masz konta? Zarejestruj się za darmo!
----------------
Links are not encoded only for registered users only! Plese login or register!

Użytkownik VIP

CrashRedVIP

#1 | Dodany: 13 Grudzień 2011 14:28

Chinatown (1974) PL.720p.HDTV.x264-Destiny / POLSKI LEKTOR +mHD

Format : Matroska
File size : 6.62 GiB
Duration : 2h 10mn
Overall bit rate : 7 268 Kbps
Video
Format/Info : Advanced Video Codec
Format profile : High@L3.1
Bit rate : 6 817 Kbps
Width : 1 280 pixels
Height : 544 pixels
Display aspect ratio : 2.35:1
Frame rate : 23.976 fps
Stream size : 6.08 GiB (92%)
Writing library : x264 core 66 r1109M 75b495f
Language : English
Audio
Format : AC-3
Duration : 2h 10mn
Bit rate mode : Constant
Bit rate : 448 Kbps
Channel(s) : 6 channels
Stream size : 418 MiB (6%)
Title : Destiny-Polski



Chinatown (1974) PL.720p.HDTV.x264-Destiny / POLSKI LEKTOR +mHD

Uwaga! Linki nie zakodowane tylko dla zarejestrowanych użytkowników!

Nie masz konta? Zarejestruj się za darmo!
----------------
Links are not encoded only for registered users only! Plese login or register!

Informacje

Jeżeli chcesz skomentować artykuł musisz być zarejestrowany na stronie.