EXSite.pl - Portal ze wszystkim Mamy tutaj wszystko

NIE MASZ JESZCZE KONTA? ZAREJESTRUJ SIĘ ZA DARMO!   
Przypomnij hasło X

Oszukać przeznaczenie 5 / Final Destination 5 (2011) Bluray.720p.X264.dxva.DTS-PRESTiGE

Dodał: ampatinis 15 Grudzień 2011 19:32


Oszukać przeznaczenie 5 / Final Destination 5 (2011) Bluray.720p.X264.dxva.DTS-PRESTiGE

Oszukać przeznaczenie 5 / Final Destination 5 (2011) Bluray.720p.X264.dxva.DTS-PRESTiGE

Oszukać przeznaczenie 5 / Final Destination 5 (2011) Bluray.720p.X264.dxva.DTS-PRESTiGE
Reżyseria: Steven Quale.
Występują: Nicholas D'Agosto, Emma Bell, Miles Fisher, Ellen Wroe.
Gatunek: Horror.
Produkcja: USA.

Grupa współpracowników jedzie autobusem na wyjazd integracyjny. Jeden z chłopaków, Sam, ma wizję katastrofy - most, na który za chwilę wjadą, runie do wody, przyczyniając się do śmierci dziesiątek ludzi. Bohaterowie uratują się spod ostrza kosy, ale porządek rzeczy nie jest czymś, z czym można igrać bez konsekwencji. Kostucha i tak upomni się o maruderów.

Complete name : Final Destination 5 [2011] Bluray.720p X264 dxva DTS - PRESTiGE.mkv
Format : Matroska
File size : 4.79 GiB
Duration : 1h 31mn
Overall bit rate : 7 468 Kbps
Encoded date : UTC 2011-12-15 14:09:19
IMDB: http://www.imdb.com/title/tt1622979/
Encoder:Twisted
Source: Punkt.naznachenija.5.2011.D.BD-Remux


ID : 1
Format : AVC
Format/Info : Advanced Video Codec
Format profile : Main@L4.1
Format settings, CABAC : Yes
Format settings, ReFrames : 3 frames
Format settings, GOP : M=4, N=56
Codec ID : V_MPEG4/ISO/AVC
Duration : 1h 31mn
Bit rate mode : Variable
Bit rate : 5 958 Kbps
Maximum bit rate : 40.0 Mbps
Width : 1 280 pixels
Height : 528 pixels
Display aspect ratio : 2.40:1
Frame rate : 23.976 fps
Color space : YUV
Chroma subsampling : 4:2:0
Bit depth : 8 bits
Scan type : Progressive
Bits/(Pixel*Frame) : 0.368
Stream size : 3.73 GiB (78%)
Writing library : x264 core 115 r2008 4c552d8
Encoding settings : cabac=1 / ref=4 / deblock=1:-1:-1 / analyse=0x1:0x111 / me=hex / subme=7 / psy=1 / psy_rd=1.00:0.15 / mixed_ref=1 / me_range=16 / chroma_me=1 / trellis=1 / 8x8dct=0 / cqm=0 / deadzone=21,11 / fast_pskip=1 / chroma_qp_offset=-3 / threads=6 / sliced_threads=0 / slices=4 / nr=0 / decimate=1 / interlaced=0 / bluray_compat=1 / constrained_intra=0 / bframes=3 / b_pyramid=1 / b_adapt=1 / b_bias=0 / direct=1 / weightb=1 / open_gop=1 / weightp=0 / keyint=60 / keyint_min=6 / scenecut=40 / intra_refresh=0 / rc_lookahead=40 / rc=2pass / mbtree=1 / bitrate=5958 / ratetol=1.0 / qcomp=0.60 / qpmin=0 / qpmax=69 / qpstep=4 / cplxblur=20.0 / qblur=0.5 / vbv_maxrate=40000 / vbv_bufsize=30000 / nal_hrd=vbr / ip_ratio=1.40 / aq=1:1.00
Language : English
Color primaries : BT.709-5, BT.1361, IEC 61966-2-4, SMPTE RP177
Transfer characteristics : BT.709-5, BT.1361
Matrix coefficients : BT.709-5, BT.1361, IEC 61966-2-4 709, SMPTE RP177



ID : 2
Format : DTS
Format/Info : Digital Theater Systems
Codec ID : A_DTS
Duration : 1h 31mn
Bit rate mode : Constant
Bit rate : 1 510 Kbps
Channel(s) : 6 channels
Channel positions : Front: L C R, Side: L R, LFE
Sampling rate : 48.0 KHz
Bit depth : 24 bits
Compression mode : Lossy
Stream size : 992 MiB (20%)
Language : English


Oszukać przeznaczenie 5 / Final Destination 5 (2011) Bluray.720p.X264.dxva.DTS-PRESTiGE

Oszukać przeznaczenie 5 / Final Destination 5 (2011) Bluray.720p.X264.dxva.DTS-PRESTiGE Oszukać przeznaczenie 5 / Final Destination 5 (2011) Bluray.720p.X264.dxva.DTS-PRESTiGE

Oszukać przeznaczenie 5 / Final Destination 5 (2011) Bluray.720p.X264.dxva.DTS-PRESTiGE
Uwaga! Linki nie zakodowane tylko dla zarejestrowanych użytkowników!

Nie masz konta? Zarejestruj się za darmo!
----------------
Links are not encoded only for registered users only! Plese login or register!



Użytkownik VIP

poczesaniec1Użytkownik

#1 | Dodany: 15 Grudzień 2011 22:25

witam kiedy film z lektorem,bo widze że na allegro wysyłają po 12 grudnia a premiera niby 20 stycznia
dobra to tylko jeden gość chyba przesadził z datą,sorka

Informacje

Jeżeli chcesz skomentować artykuł musisz być zarejestrowany na stronie.