EXSite.pl - Portal ze wszystkim Mamy tutaj wszystko

NIE MASZ JESZCZE KONTA? ZAREJESTRUJ SIĘ ZA DARMO!   
Przypomnij hasło X

Krwawy diament / Blood Diamond (2006) PL.Bluray.1080p.x264.Crash / POLSKI LEKTOR

Dodał: CrashRed 17 Grudzień 2011 15:52


Krwawy diament / Blood Diamond (2006) PL.Blu-ray.1080p.x264.Crash / POLSKI LEKTOR

Krwawy diament / Blood Diamond (2006) PL.Bluray.1080p.x264.Crash / POLSKI LEKTOR

Krwawy diament / Blood Diamond (2006) PL.Bluray.1080p.x264.Crash / POLSKI LEKTOR
http://www.filmweb.pl/Krwawy.Diament

czas trwania: 2 godz. 23 min.
gatunek: Dramat
premiera: 26 stycznia 2007 (Polska) 2007-01-26 8 grudnia 2006 (świat) 2006-12-08
reżyseria: Edward Zwick
scenariusz: Charles Leavitt, Marshall Herskovitz (więcej...)

Tłem akcji jest wojna domowa i chaos panujący w Sierra Leone w latach 90. XX wieku. "Krwawy diament" to historia przemytnika z RPA Danny'ego Archera i Solomona Vandy'ego, rybaka z ludu Mende. Chociaż obydwaj mężczyźni pochodzą z Afryki, ich życiorysy były dotychczas zupełnie ze sobą niezwiązane - aż do chwili, gdy wspólnie postanowili wyruszyć na poszukiwanie rzadkiego różowego diamentu, który mógłby zmienić życie każdego z nich. Odsiadując wyrok za przemyt, Archer dowiaduje się, że Solomon -
który został odebrany rodzinie i zmuszony do pracy na polach diamentowych - znalazł i ukrył niezwykły kamie?. Z pomocą Maddy Bowen, ameryka?skiej dziennikarki, której idealistyczne przekonania stają się coraz mniej radykalne w miarę pogłębiania się romansu z Archerem, obydwaj bohaterowie ruszają na wyprawę przez tereny ogarnięte rebelią. To podróż, która może uratować rodzinę Solomona, a Archerowi dać drugą szansę, na którą, jak mu się zdawało, nie mógł już liczyć


Krwawy diament / Blood Diamond (2006) PL.Bluray.1080p.x264.Crash / POLSKI LEKTOR
Krwawy diament / Blood Diamond (2006) PL.Bluray.1080p.x264.Crash / POLSKI LEKTOR

Format : Matroska
File size : 10.9 GiB
Duration : 2h 23mn
Overall bit rate : 10.9 Mbps
Video
Format/Info : Advanced Video Codec
Format profile : High@L4.1
Duration : 2h 23mn
Bit rate : 10.5 Mbps
Width : 1 920 pixels
Height : 800 pixels
Display aspect ratio : 2.40:1
Frame rate : 23.976 fps
Stream size : 10.3 GiB (94%)
Writing library : x264 core 98 r1649 c54c47d
Language : English
Audio
Format : AC-3
Duration : 2h 23mn
Bit rate mode : Constant
Bit rate : 384 Kbps
Channel(s) : 6 channels
Stream size : 394 MiB (4%)
Title : Crash-Polski



Krwawy diament / Blood Diamond (2006) PL.Bluray.1080p.x264.Crash / POLSKI LEKTOR
Uwaga! Linki nie zakodowane tylko dla zarejestrowanych użytkowników!

Nie masz konta? Zarejestruj się za darmo!
----------------
Links are not encoded only for registered users only! Plese login or register!



Użytkownik VIP

CrashRedVIP

#1 | Dodany: 17 Grudzień 2011 15:52

ok

Informacje

Jeżeli chcesz skomentować artykuł musisz być zarejestrowany na stronie.